Help - Search - Members - Calendar
Full Version: War Dogs - War Dogs [ep] (2018)
Metal Area - Extreme Music Portal > Releases Area / Релизы > Archive
aesteticvice


*Artist: War Dogs
*Album: War Dogs [ep]
*Year: 2018
*Genre: Heavy/Speed Metal
*Country: Spain
*Format: mp3@CBR320kbps
*Size: 62MB

Tracklist:
1. Back for the Attack 04:05
2. Playing with Fire 03:23
3. Immortal's Lament 06:28
4. Midnight Whisper 03:33
5. Rampage 05:46
6. To Live to Fight Another Day 03:16
******************************
Total playing time: 26:31



Extended info
Manuel Molina - Bass (2015-present)
José V. Aldeguer - Drums (2015-present)
Eduardo Antón - Guitars (lead) (2015-present)
Enrique Mas - Guitars (rhythm) (2017-present)
Alberto Rodríguez - Vocals (2017-present)



Technical info

Input File: 02. Playing with Fire.mp3
Channels : 2
Sample Rate : 44100
Precision : 16-bit
Duration : 00:03:23.30 = 8965486 samples = 15247.4 CDDA sectors
File Size : 8.49M
Bit Rate : 334k
Sample Encoding: MPEG audio (layer I, II or III)
Comments :
Title=Playing with Fire
Artist=War Dogs
Album=War Dogs
Tracknumber=2/6
Year=2018
Discnumber=1/1



[ Hidden Text ]
aesteticvice
mirror
[ Hidden Text ]
SAPOGi


Jahmephisto
Молодцы испанцы. Тот самый приемлемый гаражный уровень. Видно что ребята отсидели свои "ЖЧ" композиторские жоуппа-часы с инструментом в руках и писали уже осознанно. Молодцы!
zauber1
Полное днище.
hammer
ЦИТАТА(zauber1 @ Jul 22 2018, 17:55:29) *
Полное днище.

нет.
slack
Вокал слабоват. Хорошего продюсера и звука не хватает...
Слушать можно.
This is a "lo-fi" version of our main content. To view the full version with more information, formatting and images, please click here.
Invision Power Board © 2001-2018 Invision Power Services, Inc.