*Artist: Virox
*Album: VxRxXx [ep]
*Year: 2018
*Genre: Thrash Metal
*Country: Mexico
*Format: mp3@CBR320kbps
*Size: 31MB

Tracklist:
01. Acto de Guerra
03. Desastre Nuclear
04. Instinto Alcohólico
04. VxRxXx
******************************
Total playing time: 14:24



Extended info
Jose - Batería y coros
Oswald - Voz
Andres - Guitarra
Eddie - Bajo


Technical info

Input File: 03 - Instinto Alcoholico.mp3
Channels : 2
Sample Rate : 44100
Precision : 16-bit
Duration : 00:03:50.98 = 10186130 samples = 17323.4 CDDA sectors
File Size : 9.25M
Bit Rate : 320k
Sample Encoding: MPEG audio (layer I, II or III)
Comments :
Title=Instinto Alcoholico
Artist=ViroX
Album=VxRxXx
Tracknumber=3
Year=2018
Genre=Thrash Metal



[ Hidden Text ]