Help - Search - Members - Calendar
Full Version: Sewer - Rektal (2018)
Metal Area - Extreme Music Portal > Releases Area / Релизы > New Releases
aesteticvice


*Artist: Sewer
*Album: Rektal
*Year: 2018
*Genre: Raw Black Metal
*Country: United States
*Format: mp3@CBR320kbps
*Size: 133MB

Tracklist:
01. Eldorado
02. Kadaver Seksual
03. Preteen Labial Exsanguination
04. Aberrant Urethral Placenta Commotion
05. Post-Mortem Telolecithal Embryonic Prostitute
06. Hyperpriapic Procrustean Goresaw to Defile the Cunt of Satan
07. Retrograde Prenatal Haruspicy on Seismologic Subintestinal Amygdala
08. Dark Satanic Sex with Satanic Demons and Satan Protoplasmic Vagina 666
09. Necrophobic Autosexual Reverence of Pedophallic Retroperitoneal Scatofoetal Gastronomy
10. Aquatile Sodomy to Heptahedral Obsequial Sphincter Sewage in the Mouth of Satan Crucifix
11. Rektal
******************************
Total playing time: 1:03:33



Extended info



Technical info

Input File: 02-sewer-kadaver_seksual-35fc811f.mp3
Channels : 2
Sample Rate : 44100
Precision : 16-bit
Duration : 00:04:28.48 = 11839880 samples = 20135.9 CDDA sectors
File Size : 11.0M
Bit Rate : 327k
Sample Encoding: MPEG audio (layer I, II or III)
Comments :
Title=Kadaver Seksual
Artist=Sewer
Album=Rektal
Tracknumber=2/11
Year=2018
Genre=Black Metal



[ Hidden Text ]
Funeral Frost
как
они интересно
расположили названия
по длине
judaz
По двум превьюшным трекам - тянет на альбом года.
babanguida
raw black metal 21.gif
none of these

RUSP73
Ерунда какая-то...вокалист перестарался с дисторшеном - какой тут альбом года...
This is a "lo-fi" version of our main content. To view the full version with more information, formatting and images, please click here.
Invision Power Board © 2001-2018 Invision Power Services, Inc.