Help - Search - Members - Calendar
Full Version: Bitter Lake - Bitter Lake (2018)
Metal Area - Extreme Music Portal > Releases Area / Релизы > Archive
aesteticvice


*Artist: Bitter Lake
*Album: Bitter Lake
*Year: 2018
*Genre: Atmospheric Black Metal
*Country: United Kingdom
*Format: mp3@CBR320kbps
*Size: 85MB

Tracklist:
1. Frozen Landscapes 06:19
2. Elephant 08:30
3. Blue (FT Bladez) 11:08
4. Lost Souls 03:18
5. Frozen Landscapes (Single Version) 06:19
******************************
Total playing time: 35:34




Extended info
Standard Edition


Technical info

Input File: 04 Lost Souls.mp3
Channels : 2
Sample Rate : 44100
Precision : 16-bit
Duration : 00:03:18.54 = 8755658 samples = 14890.6 CDDA sectors
File Size : 8.14M
Bit Rate : 328k
Sample Encoding: MPEG audio (layer I, II or III)
Comments :
Title=Lost Souls
Artist=Bitter Lake
Album=Bitter Lake (Standard Edition)
Tracknumber=4
Year=2018



[ Hidden Text ]
Razorbladeswaltz
mirror, pls
Mirddin
ЦИТАТА(Razorbladeswaltz @ 12th July 2018 - 00:43:23) *
mirror, pls

[ Hidden Text ]
isvili
Это дармовая лажа, а не музыка.
Lucifer
Это вовсе не атмосферик блэк, а причудливая смесь блэкушных ритмов и скрима с перегруженным дроуном в стиле первых альбомов Earth. При чем агрессивные и медитативные куски чередуются друг с другом. Определенную долю удовольствия (поклонникам дроуна) альбом доставит.
This is a "lo-fi" version of our main content. To view the full version with more information, formatting and images, please click here.
Invision Power Board © 2001-2018 Invision Power Services, Inc.