Help - Search - Members - Calendar
Full Version: Foothill Roots - Nature Resonates [demo] (2018)
Metal Area - Extreme Music Portal > Releases Area / Релизы > New Releases
demenn


*Artist: Foothill Roots
*Album: Nature Resonates [demo]
*Year: 2018
*Genre: Atmospheric Black Metal
*Country: Ireland
*Format: mp3@CBR320kbps
*Size: 59MB

Tracklist:
01. Intro 01:10
02. The Forest In Spring 10:44
03. Silver Under The Hills 07:18
04. Years Of Endless Rain 03:59
05. Tribute To Sun And Moon Dance - Hymne Til Freyja 02:24
******************************
Total playing time: 25:36



Extended info


Technical info

Input File: 02 The Forest In Spring.mp3
Channels : 2
Sample Rate : 44100
Precision : 16-bit
Duration : 00:10:44.82 = 28436518 samples = 48361.4 CDDA sectors
File Size : 25.8M
Bit Rate : 320k
Sample Encoding: MPEG audio (layer I, II or III)
Comments :
Title=The Forest In Spring
Artist=Foothill Roots
Album=Nature Resonates
Tracknumber=02
Year=2018
Genre=Black Metal



[ Hidden Text ]
Razorbladeswaltz
mirror, pls
demenn
ЦИТАТА(Razorbladeswaltz @ Jul 11 2018, 22:44:23) *
mirror, pls

Прямая ссылка на
isvili
Utka raw atmospheric black metal 15.gif 15.gif 15.gif
Вернее Selezen
This is a "lo-fi" version of our main content. To view the full version with more information, formatting and images, please click here.
Invision Power Board © 2001-2018 Invision Power Services, Inc.