Help - Search - Members - Calendar
Full Version: Friday The 13Th: Part 2 - First Blood [ep] (2018)
Metal Area - Extreme Music Portal > Releases Area / Релизы > Archive
necroscum


*Artist: Friday The 13Th: Part 2
*Album: First Blood [ep]
*Year: 2018
*Genre: Brutal Death Metal/Goregrind
*Country: United States
*Format: mp3@CBR320kbps
*Size: 24MB

Tracklist:
01. Stabbed 01:45
02. Leviathan 03:22
03. Horrendous Death 00:38
04. Garroted 02:00
05. Zombie Apocalypse (Mortician Cover) 02:49
******************************
Total playing time: 10:34



Technical info

Input File: 01. Stabbed.mp3
Channels : 2
Sample Rate : 44100
Precision : 16-bit
Duration : 00:01:45.44 = 4649728 samples = 7907.7 CDDA sectors
File Size : 4.31M
Bit Rate : 327k
Sample Encoding: MPEG audio (layer I, II or III)
Comments :
Title=Stabbed
Artist=Friday The 13th: Part 2
Album=First Blood
Tracknumber=1
Year=2018



[ Hidden Text ]
HelenVaughan
Ну прямо скажем, если под первой частью подразумевается вот это: Friday 13 - 2007 - Gore Pack VA

[ Hidden Text ]

то она поинтереснее была..

This is a "lo-fi" version of our main content. To view the full version with more information, formatting and images, please click here.
Invision Power Board © 2001-2018 Invision Power Services, Inc.