Help - Search - Members - Calendar
Full Version: Kammerjäger - Rising From Hell (2017)
Metal Area - Extreme Music Portal > Releases Area / Релизы > Archive
Samaritianin


*Artist: Kammerjäger
*Album: Rising From Hell
*Year: 2017
*Genre: Speed/Thrash Metal
*Country: Spain
*Format: mp3@CBR320kbps
*Size: 72MB

Tracklist:
1. Defeat Those Bastards 02:38
2. Heavy Metal Attack 03:24
3. Slaughterhouse Chant 03:19
4. Nice to Kill You 02:44
5. We Won't Fall 03:18
6. Fallen Beers 04:38
7. Evil's Home 03:35
8. Anthem of Violence 03:38
9. Rise from Hell 04:29
******************************
Total playing time: 31:43



Extended info
Masakre - Vocals
Juan Ángel - Guitars
Antonio Colmenero - Guitars
Dani Martinez - Bass
Germán Martínez - Drums​



Technical info

Input File: 05 - We Won\'t Fall.mp3
Channels : 2
Sample Rate : 44100
Precision : 16-bit
Duration : 00:03:19.42 = 8794554 samples = 14956.7 CDDA sectors
File Size : 7.98M
Bit Rate : 320k
Sample Encoding: MPEG audio (layer I, II or III)
Comments :
Title=We Won't Fall
Artist=Kammerjäger
Album=Rising From Hell
Tracknumber=5
Year=2017
Genre=Thrash Metal



[ Hidden Text ]
Samaritianin
Cloud Mail 320
[ Hidden Text ]
hammer
Зачет.Забрал.........
DarkHorde
По превью драйвовый музон, однозначно слушать metaler.gif
russ777
Зачётный альбом, и местами что-то чертовски напоминает...
Релизёру 9.gif 9.gif
Genuine Thrashiac
russ777, Ранннингов? ГрейвДиггер?
Если бы добавить волынок - то Ин Экстремо напомнили бы кое-где.

Вообще не проникся. Ну, нету трэша тут. Спидо-Хэви (ИМХО) :\
Diflock
Шпанцы очень добротно нарезают и звучание мне понравилось, но отсутствие Thrash не позволило перерасти позитиву в нечто более серьезное. Как то так :/
This is a "lo-fi" version of our main content. To view the full version with more information, formatting and images, please click here.
Invision Power Board © 2001-2018 Invision Power Services, Inc.