*Artist: Sore Implanted
*Album: Menschenhandel [ep]
*Year: 2017
*Genre: Brutal Death Metal
*Country: Germany
*Format: mp3@CBR320kbps
*Size: 28MB

Tracklist:
1. Branded 03:19
2. Consumed 04:02
3. Disposed 04:20
******************************
Total playing time: 11:41



Extended info
Line - up:

Linus Bahr - Drums
Marius Tuschl - Guitars, Vocals, Bass



Technical info

Input File: 02. Consumed.mp3
Channels : 2
Sample Rate : 48000
Precision : 16-bit
Duration : 00:04:02.79 = 11653776 samples ~ 18209 CDDA sectors
File Size : 9.72M
Bit Rate : 320k
Sample Encoding: MPEG audio (layer I, II or III)
Comments :
Title=Consumed
Artist=Sore Implanted
Album=Menschenhandel (EP)
Tracknumber=2
Year=2017
Genre=Brutal Death Metal



[ Hidden Text ]