Help - Search - Members - Calendar
Full Version: Bloodshed Walhalla - Ragnarok (2018)
Metal Area - Extreme Music Portal > Releases Area / Релизы > Archive > Low Bitrate Archive (read only)
stone88


*Artist: Bloodshed Walhalla
*Album: Ragnarok
*Year: 2018
*Genre: Viking Metal
*Country: Italy
*Format: mp3@VBR221kbps
*Size: 106MB

Tracklist:
01. Ragnarok 13:50
02. My Mother Earth 12:08
03. Like Your Son 12:07
04. For My God 27:45
******************************
Total playing time: 1:05:50




Technical info

Input File: 03. Bloodshed Walhalla - Like Your Son.mp3
Channels : 2
Sample Rate : 44100
Precision : 16-bit
Duration : 00:12:07.72 = 32092408 samples = 54578.9 CDDA sectors
File Size : 19.4M
Bit Rate : 214k
Sample Encoding: MPEG audio (layer I, II or III)
Comments :
Title=Like Your Son
Artist=Bloodshed Walhalla
Album=Ragnarok
Tracknumber=03/04
Year=2018
Genre=Metal



[ Hidden Text ]
SAPOGi
MeatWolf
Есть куски, напоминающий ранний фолковый Мунсорроу, но многовато воды и уныния.
avather
ЦИТАТА(MeatWolf @ Jul 21 2018, 19:06:50) *
многовато воды и уныния.

depressive viking metal?!
MeatWolf
Не в плане настроения, а в плане качества материала.
thenecromancer
THANKS!! HAIL Bloodshed Walhalla! metaler.gif dwarf-1.gif true_black.gif
This is a "lo-fi" version of our main content. To view the full version with more information, formatting and images, please click here.
Invision Power Board © 2001-2019 Invision Power Services, Inc.