Help - Search - Members - Calendar
Full Version: The Spirit - Sounds From The Vortex (2017)
Metal Area - Extreme Music Portal > Releases Area / Релизы > New Releases > Lossless
Samaritianin


*Artist: The Spirit
*Album: Sounds From The Vortex
*Year: 2017
*Genre: Melodic Black/Death Metal
*Country: Germany
*Format: mp3@CBR320kbps
*Size: 93MB

Tracklist:
1. Sounds from the Vortex 02:29
2. Cosmic Fear 04:27
3. The Clouds of Damnation 07:15
4. Cross the Bridge to Eternity 06:15
5. Illuminate the Night Sky 05:44
6. The Great Mortality 05:35
7. Fields of the Unknown 06:17
******************************
Total playing time: 38:02



Extended info
MS Drums
AK Guitars
MT Guitars, Vocals (2015-present)
AT Bass (2016-present)



Technical info

Input File: 02. Cosmic Fear.mp3
Channels : 2
Sample Rate : 44100
Precision : 16-bit
Duration : 00:04:27.14 = 11780962 samples = 20035.6 CDDA sectors
File Size : 11.5M
Bit Rate : 343k
Sample Encoding: MPEG audio (layer I, II or III)
Comments :
Title=Cosmic Fear
Artist=The Spirit
Album=Sounds from the Vortex
Tracknumber=2
Year=2017
Genre=Metal
Discnumber=1



[ Hidden Text ]
Samaritianin
Cloud Mail 320
[ Hidden Text ]
DenisKov
Послушал треки с превью, неплохо, можно на раз прогнать.
isvili
ЦИТАТА(DenisKov @ Aug 9 2018, 20:01:51) *
Послушал треки с превью, неплохо, можно на раз прогнать.

А два раза слабо? 1488.gif
Andrew
Я уже альбом раз 7 прослушал (дабы он не слишком длинный). Отличная работа!
templ
хороши все-таки
zezao
lossless please
Borderline1991
[ Hidden Text ]
satanist666
This is a "lo-fi" version of our main content. To view the full version with more information, formatting and images, please click here.
Invision Power Board © 2001-2020 Invision Power Services, Inc.