Help - Search - Members - Calendar
Full Version: Pantheist - Seeking Infinity (2018)
Metal Area - Extreme Music Portal > Releases Area / Релизы > Archive > Low Bitrate Archive (read only)
aesteticvice


*Artist: Pantheist
*Album: Seeking Infinity
*Year: 2018
*Genre: Funeral Doom Metal
*Country: Belgium
*Format: mp3@CBR128kbps
*Size: 55MB

Tracklist:
1. Eye of the Universe 01:59
2. Control and Fire 11:45
3. 500 B.C. to 30 A.D.- The Enlightened Ones 13:13
4. 1453: an Empire Crumbles 06:04
5. Emergence 12:17
6. Seeking Infinity, Reaching Eternity 14:39
******************************
Total playing time: 59:57




Extended info
Kostas Panagiotou - Vocals, Keyboards (2000-present) See also: Kostas Panagiotou, Landskap, Towards Atlantis Lights, Wastes, ex-Wijlen Wij, ex-Aphonic Threnody, ex-Bellator, ex-Clouds, ex-Crippled Black Phoenix, ex-Ereipia
Aleksej Obradović - Bass (2011-present) See also: ex-De Profundis
Frank Allain - Guitars (2015-present) See also: De Arma, Demagogue, Fellwarden, Fen, Virophage, Kaon, Lost Legion, ex-Antigone, ex-The Clan of Steel, ex-Skaldic Curse
Dan - Drums (2016-present) See also: Bereft of Light, Clouds, Colosus, Deos, Eye of Solitude, God Eat God, Mistralth, Obseqvies, Shape of Despair, Vaer, ex-My Shadow, Tableau Mort, ex-Ennui, ex-Fogland, ex-Gothic, ex-Imber Luminis, ex-Sidious, ex-Tiarra, ex-Unfathomable Ruination, ex-L.O.S.T., ex-Amatris


Technical info

Input File: 02. Control and Fire.mp3
Channels : 2
Sample Rate : 44100
Precision : 16-bit
Duration : 00:11:46.13 = 31140509 samples = 52960 CDDA sectors
File Size : 11.3M
Bit Rate : 128k
Sample Encoding: MPEG audio (layer I, II or III)
Comments :
Title=Control and Fire
Artist=Pantheist
Album=Seeking Infinity
Tracknumber=02
Year=2018



[ Hidden Text ]
Faust_Vulkan_16
Великолепно.
aesteticvice
MIRROR
[ Hidden Text ]
Old Vyaine
Обожду качества 23.gif

а ссылка на старый БК зачем?
aesteticvice
ЦИТАТА(Old Vyaine @ Sep 8 2018, 11:20:26) *
а ссылка на старый БК зачем?

а вдруг кто не знает группу, может ознакомиться как превью 25.gif
на самом деле, это официальная страничка, скорее всего по выходу альбома там появится и сабж bye.gif есть еще какой-то новый?
paganheart
Альбом просто чумовой! Пока лучшее,что вышло в думе в этом году! Филигранность композиций, помноженная на мощь и атмосферу! pray.gif pray.gif pray.gif
quicksand
ЦИТАТА(paganheart @ Sep 8 2018, 15:46:16) *
Альбом просто чумовой! Пока лучшее,что вышло в думе в этом году! Филигранность композиций, помноженная на мощь и атмосферу! pray.gif pray.gif pray.gif


Заинтересовал! Если не такая шляпа, что на прошлом, если это больше похоже на Journey то, что до него, будет круть!
Заценим-с
Exorcist
Что, реально погребал или тэги с 2005-го не изменял? )
Black Cat
pray.gif
ЦИТАТА(Exorcist @ Sep 8 2018, 17:53:50) *
Что, реально погребал или тэги с 2005-го не изменял? )

Реально, я этот материал еще три года назад на ДОКе слушал.
quicksand
Да, это не одноименный группе альбом, уже хорошо, тяжелый, грузный, загробный гроул и все такое))
Первые композиции вселяют много оптимизма, но уже с 4 трека начинаешь скучать, благо концовка реабилитирует.
Конечно такое надо выслушать, но сразу что бросается, так это то, что ребята определенно хорошенько переслушали свои старые записи,
ибо на альбоме присутствуют элементы всех былых релизов(на счет 2011 вряд ли).
Что же, в любом случае прослушал с интересом, попробую еще. Чего и вам советую smile3.gif
Faust_Vulkan_16
QUOTE(paganheart @ Sep 8 2018, 19:46:16) *
Альбом просто чумовой! Пока лучшее,что вышло в думе в этом году! Филигранность композиций, помноженная на мощь и атмосферу! pray.gif pray.gif pray.gif

Плюсану аккуратно.
KVRT
ЦИТАТА(Faust_Vulkan_16 @ Sep 8 2018, 19:38:47) *
Плюсану аккуратно.

ниачкуй.. восмидесяткин есчо не скоро дойдёт до седова, дабы всех удОбрить
This is a "lo-fi" version of our main content. To view the full version with more information, formatting and images, please click here.
Invision Power Board © 2001-2019 Invision Power Services, Inc.