Help - Search - Members - Calendar
Full Version: Aeternus - Heathen (2018)
Metal Area - Extreme Music Portal > Releases Area / Релизы > Archive > Low Bitrate Archive (read only)
aesteticvice


*Artist: Aeternus
*Album: Heathen
*Year: 2018
*Genre: Black/Death Metal
*Country: Norway
*Format: mp3@CBR128kbps
*Size: 33MB

Tracklist:
1. Hedning 06:06
2. The Sword of Retribution 04:49
3. Conjuring of the Gentiles 06:26
4. The Significance of Iblis 03:58
5. How Opaque the Disguise of the Adversary 04:31
6. Boudica 04:48
7. ‘Illa Mayyit 05:06
******************************
Total playing time: 35:44



Extended info
Ares - Vocals, Guitars (1993-present), Keyboards (1995), Bass (2012) See also: ex-Lux Axiomus, ex-Örth, ex-Arvas, ex-Gorgoroth, ex-Black Hole Generator, ex-Gravdal, ex-Grimfist, ex-Immortal, ex-Malignant Eternal, ex-Chaos Predicted, ex-Corona Borealis (Nor)
Phobos - Drums (2007-present) See also: Gravdal, ex-Malsain, Trollberg, ex-Galar, ex-Gorgoroth, ex-Sulphur, ex-ASPG, ex-Transylvania
Frode Kilvik - Bass (2013-present) See also: Gravdal, Kraków, Malignant Eternal, Taake, ex-Viðr, Gaahls Wyrd


Technical info

Input File: 02. The Sword of Retribution.mp3
Channels : 2
Sample Rate : 44100
Precision : 16-bit
Duration : 00:04:49.78 = 12779166 samples = 21733.3 CDDA sectors
File Size : 4.64M
Bit Rate : 128k
Sample Encoding: MPEG audio (layer I, II or III)
Comments :
Title=The Sword of Retribution
Artist=Aeternus
Album=Heathen
Tracknumber=02
Year=2018



[ Hidden Text ]
ancientuscoronero
Не вяжется у меня этот альбом с блэк/дэт, скорее здесь экстремальный прогрессив по типу поздних Enslaved и немного Emperor. Присутствуют диссонансы, моменты с разреженной атмосферой и явный пост налет, при этом материал цельный и сильный, выверенный. Такая эволюция меня устраивает.
Samaritianin
320
[ Hidden Text ]
This is a "lo-fi" version of our main content. To view the full version with more information, formatting and images, please click here.
Invision Power Board © 2001-2019 Invision Power Services, Inc.