Help - Search - Members - Calendar
Full Version: Plague Years - Unholy Infestation (2018)
Metal Area - Extreme Music Portal > Releases Area / Релизы > Archive > Low Bitrate Archive (read only)
aesteticvice


*Artist: Plague Years
*Album: Unholy Infestation [ep]
*Year: 2018
*Genre: Death/Thrash Metal
*Country: United States
*Format: mp3@CBR320kbps
*Size: 65MB

Tracklist:
1. Unholy Infestation 05:11
2. Outer Darkness 04:38
3. Hellborn 05:33
4. Aeon of the Serpent 05:27
5. Taker of Life 03:09
6. Infernal Torment 04:54
******************************
Total playing time: 28:52




Extended info
Mike Jurysta - Drums See also: Breaking Wheel, Build and Destroy
Eric Lauder - Guitars (lead) See also: Build and Destroy
Jimmy Bilbrey - Guitars (rhythm)
Tim Englehardt - Vocals


Technical info

Input File: 03. Hellborn.mp3
Channels : 2
Sample Rate : 44100
Precision : 16-bit
Duration : 00:05:33.34 = 14700294 samples = 25000.5 CDDA sectors
File Size : 13.7M
Bit Rate : 329k
Sample Encoding: MPEG audio (layer I, II or III)
Comments :
Title=Hellborn
Artist=Plague Years
Album=Unholy Infestation
Tracknumber=03/06
Year=2018
Genre=Metal



[ Hidden Text ]
Kehl05
Тип релиза:ЕР


https://www.youtube.com/watch?v=trzgqj_iwEI
This is a "lo-fi" version of our main content. To view the full version with more information, formatting and images, please click here.
Invision Power Board © 2001-2019 Invision Power Services, Inc.