Help - Search - Members - Calendar
Full Version: Black Oath - Behold The Abyss (2018)
Metal Area - Extreme Music Portal > Releases Area / Релизы > New Releases > Lossless
aesteticvice


*Artist: Black Oath
*Album: Behold The Abyss
*Year: 2018
*Genre: Doom Metal
*Country: Italy
*Format: mp3@CBR320kbps
*Size: 99MB

Tracklist:
1. Behold the Abyss 09:13
2. Chants of Aradia 07:19
3. Lilith Black Moon 07:32
4. Once Death Sang 05:04
5. Profane Saviour 07:12
6. Everlasting Darkness 05:05
******************************
Total playing time: 41:25




Extended info
A.Th - Vocals, Guitars (2006-present), Bass (2015-present) See also: The Rite, ex-Gosforth, ex-Arvind, ex-Morbus Grave, ex-Sepulcral
Chris Z. - Drums (2010-present) See also: ex-Gosforth, ex-Nemesant, ex-Infliction
B. R. - Guitars (2014-present) See also: Necro


Technical info

Input File: 04. Once Death Sang.mp3
Channels : 2
Sample Rate : 44100
Precision : 16-bit
Duration : 00:05:04.95 = 13448163 samples = 22871 CDDA sectors
File Size : 12.6M
Bit Rate : 332k
Sample Encoding: MPEG audio (layer I, II or III)
Comments :
Title=Once Death Sang
Artist=Black Oath
Album=Behold the Abyss
Tracknumber=4/6
Year=2018
Discnumber=1/1



[ Hidden Text ]
aesteticvice
MIRROR
[ Hidden Text ]
vosmidesijatye
Хорошая группа.
isvili
Отличная музыка, но с таким слащавым вокалом слушать не могу.
BlackArrow
Редко нравится дум в чистом виде, но этот прям отлично зашёл 20.gif
Djarovich
Прошу перезалив
Borderline1991
[ Hidden Text ][ Hidden Text ]
This is a "lo-fi" version of our main content. To view the full version with more information, formatting and images, please click here.
Invision Power Board © 2001-2021 Invision Power Services, Inc.