Help - Search - Members - Calendar
Full Version: Corpsessed - Impetus Of Death (2018)
Metal Area - Extreme Music Portal > Releases Area / Релизы > Archive > Low Bitrate Archive (read only)
Samaritianin


*Artist: Corpsessed
*Album: Impetus Of Death
*Year: 2018
*Genre: Old School Death Metal
*Country: Finland
*Format: mp3@CBR192kbps
*Size: 62MB

Tracklist:
1. Impetus of the Dead 06:20
2. Sortilege 05:33
3. Endless Plains of Dust 05:15
4. Graveborne 04:31
5. Paroxysmal 03:26
6. Forlorn Burial 05:50
7. Begetter of Doom 04:32
8. Starless Event Horizon 10:25
******************************
Total playing time: 45:52




Extended info
В ЛоуJ
ussi-Pekka Manner Drums, Vocals (backing)
Jyri Lustig Guitars
Matti Mäkelä Vocals (backing), Guitars
Niko Matilainen Vocals (lead)
Tuomas Kulmala Bass



Technical info

Input File: 02 - Sortilege.mp3
Channels : 2
Sample Rate : 44100
Precision : 16-bit
Duration : 00:05:32.50 = 14663206 samples = 24937.4 CDDA sectors
File Size : 7.98M
Bit Rate : 192k
Sample Encoding: MPEG audio (layer I, II or III)
Comments :
Title=Sortilege
Artist=Corpsessed
Album=Impetus of Death
Tracknumber=2
Year=2018
Genre=Death Metal



[ Hidden Text ]
vosmidesijatye
В свое время группа вызвала немалый хайп среди металхэдов.
Dogman
Fucking great band.
defamer666
ЦИТАТА(vosmidesijatye @ Nov 19 2018, 22:18:41) *
В свое время группа вызвала немалый хайп среди металхэдов.


И сейчас ОНА вызывает брутальное УВАЖЕНИЕ! 9.gif

P.S Низкий строй,мрачно-инфернальная АТМОСФЕРА плюс УТРОБНЫЙ гроул,как ВИШЕНКА на торте! dwarf-1.gif
SAPOGi
Подбавьте жЫрку в битрейте!
This is a "lo-fi" version of our main content. To view the full version with more information, formatting and images, please click here.
Invision Power Board © 2001-2019 Invision Power Services, Inc.