Help - Search - Members - Calendar
Full Version: Spearhead - Pacifism Is Cowardice (2018)
Metal Area - Extreme Music Portal > Releases Area / Релизы > Archive > Low Bitrate Archive (read only)
aesteticvice


*Artist: Spearhead
*Album: Pacifism Is Cowardice
*Year: 2018
*Genre: Black/Death Metal
*Country: United Kingdom
*Format: mp3@CBR128kbps
*Size: 40MB

Tracklist:
01. Duellorum 00:50
02. Of Sun and Steel 03:55
03. Ajativada 03:47
04. Wolves of the Krypteia, We 03:42
05. Violence Revolt Ruination 04:28
06. Hyperanthropos 02:14
07. Degeneration Genocide 04:12
08. The Elysian Ideal 03:33
09. A Monarch to Rats 03:56
10. Khan 03:40
11. Aion (Two Keys and a Lion's Face) 05:32
12. Aftermath 02:23
******************************
Total playing time: 42:12



Extended info
Barghest - Bass, Vocals (2005-present) See also: Tortorum, ex-Yersinia Pestis
Invictus - Guitars (rhythm) (2006-present)
Typhon - Drums (2014-present) See also: Throne of Nails, ex-Imperial Empire
Praetorian - Guitars (lead) (2014-present) See also: ex-Diamanthian



Technical info

Input File: 02. Of Sun And Steel.MP3
Channels : 2
Sample Rate : 44100
Precision : 16-bit
Duration : 00:03:55.71 = 10394635 samples = 17678 CDDA sectors
File Size : 3.78M
Bit Rate : 128k
Sample Encoding: MPEG audio (layer I, II or III)
Comments :
Title=Of Sun And Steel
Artist=Spearhead
Album=Pacifism Is Cowardice
Tracknumber=2
Year=2018



[ Hidden Text ]
aesteticvice
MIRROR
[ Hidden Text ]

babanguida
not really impressed
Samaritianin
Пока в модерке
MEGA 320 97mb
[ Hidden Text ]
This is a "lo-fi" version of our main content. To view the full version with more information, formatting and images, please click here.
Invision Power Board © 2001-2019 Invision Power Services, Inc.