Help - Search - Members - Calendar
Full Version: Pavlov's Dog - Prodigal Dreamer (2018)
Metal Area - Extreme Music Portal > Releases Area / Релизы > New Releases > Unformat R:
paganheart


*Artist: Pavlov's Dog
*Album: Prodigal Dreamer
*Year: 2018
*Genre: Progressive Rock
*Country: United States
*Format: mp3@CBR320kbps
*Size: 125MB

Tracklist:
01. Paris 04:43
02. Hard Times 04:26
03. Winterblue 04:06
04. Thrill Of It All 05:55
05. Easter Day 02:45
06. Hurting Kind 06:28
07. Aria 04:46
08. Waterlow 04:23
09. Suzanne 03:54
10. Crying Forever 04:04
11. Being In Love 02:32
12. Shaking Me Down 04:17
13. The Winds Wild Early 06:41
******************************
Total playing time: 59:00

Preview 1

Extended info
Label: Rockville Music.
Releases 07 December 2018.

Current members
David Surkamp - vocals, guitar (1972–1977, 1990, 2004, 2005–present)
Manfred Plötz - drums (2015–present)
Abbie (Hainz) Steiling - violin, mandolin (2008-present)
Amanda McCoy - lead guitar (2013-present)
Rick Steiling - bass (2009, 2011-present)
Sara Surkamp - vocals, guitar (2005-present)
Новый альбом легенды американского прог-рока!


Technical info

Input File: 02. Hard Times.mp3
Channels : 2
Sample Rate : 44100
Precision : 16-bit
Duration : 00:04:26.75 = 11763851 samples = 20006.5 CDDA sectors
File Size : 10.8M
Bit Rate : 324k
Sample Encoding: MPEG audio (layer I, II or III)
Comments :
Title=Hard Times
Artist=Pavlov's Dog
Album=Prodigal Dreamer
Tracknumber=2
Year=2018
Genre=Progressive Rock



[ Hidden Text ]
FullofHate
Я-то думал это хваленый ярославский ВИА, а это так... штатовская мазня... 1488.gif
vosmidesijatye
ЦИТАТА(FullofHate @ Dec 6 2018, 22:48:30) *
Я-то думал это хваленый ярославский ВИА, а это так... штатовская мазня... 1488.gif


Ну там одна песня Еда и Патроны стоят всего творчества этих торварищей 1488.gif
Snowblind
ЛОЛ, вот это деды проснулись. Повышенная солнечная активность штоле?
paganheart
ЦИТАТА(FullofHate @ Dec 6 2018, 21:48:30) *
Я-то думал это хваленый ярославский ВИА, а это так... штатовская мазня... 1488.gif

Чем постоянно раньше и троллил одного товарища из этого ВИА. Мало того, что у АК песни снимают подчистую, так и название.... 25.gif
vosmidesijatye
ЦИТАТА(paganheart @ Dec 6 2018, 23:04:43) *
Чем постоянно раньше и троллил одного товарища из этого ВИА. Мало того, что у АК песни снимают подчистую, так и название.... 25.gif


Ты точно видишь влияние Агаты в этом клипце?



Это же больше КИШовщина натуральная 25.gif
paganheart
ЦИТАТА(vosmidesijatye @ Dec 6 2018, 22:09:55) *
Ты точно видишь влияние Агаты в этом клипце?



Это же больше КИШовщина натуральная 25.gif

Сорян, это я с другим проджектом "Маэстро" спутал - КлЮб ТрагЭдии, который - песня "Ты и Я". crazy.gif
Ghostb
Внезапно. Но не думаю, что стоит ждать откровений.
Shadowman
Ого! Мало того, что в любом Мухосранске есть как минимум одна группа с таким названием, так еще и до штатов эта мода дошла? Однако...
paganheart
ЦИТАТА(Shadowman @ Dec 7 2018, 20:42:12) *
Ого! Мало того, что в любом Мухосранске есть как минимум одна группа с таким названием, так еще и до штатов эта мода дошла? Однако...

Издеваешься? 1488.gif Когда штатовцы прогремели со своим Pampered Menial - все участники ярославских и прочих ВИА еще даже не созрели в комсомольских семенниках их папаш)))). У меня в 90х Pampered Menial и At the Sound of the Bell были любимы не менее, чем Yes и Rush, например.)))
Shadowman
ЦИТАТА(paganheart @ Dec 7 2018, 21:13:59) *
Издеваешься? 1488.gif Когда штатовцы прогремели со своим Pampered Menial - все участники ярославских и прочих ВИА еще даже не созрели в комсомольских семенниках их папаш)))). У меня в 90х Pampered Menial и At the Sound of the Bell были любимы не менее, чем Yes и Rush, например.)))

О как... Даже не знал, что они такие древние. Впрочем, есть подозрение, что об этом не знали и наши земляки, и ярославцы, и прочие их многочисленные тезки.
Snowblind
Убогий релиз, ппц, не ожидал такой подставы от старичка. Основная масса старых прог-рокеров выдавала в последние годы гораздо более убедительные работы.
paganheart
ЦИТАТА(Snowblind @ Jan 22 2019, 21:42:13) *
Убогий релиз, ппц, не ожидал такой подставы от старичка. Основная масса старых прог-рокеров выдавала в последние годы гораздо более убедительные работы.

Да, как это не печально, альбом так себе, мягко говоря. Из старой гвардии, больше всех, крайний Ван Дер Грааф Генератор зело понравился... ну и детище Боннермана(я про Элой) со своим не совсем типичным альбомом.
This is a "lo-fi" version of our main content. To view the full version with more information, formatting and images, please click here.
Invision Power Board © 2001-2019 Invision Power Services, Inc.