Help - Search - Members - Calendar
Full Version: Kingston Wall - II (1993)
Metal Area - Extreme Music Portal > Releases Area / Релизы > New Releases > Unformat R:
Lucifer


*Artist: Kingston Wall
*Album: II
*Year: 1993
*Genre: Psychedelic/Progressive Rock
*Country: Finland
*Format: mp3@CBR320kbps
*Size: 143MB

Tracklist:
1. We Cannot Move
2. Istwan
3. Could It Be So?
4. And It's All Happening
5. Love Tonight
6. Two Of A Kind
7. I Feel Love
8. Shine On Me
9. You
10. Palékastro
******************************
Total playing time: 1:10:10

Extended info
Petri Walli - Guitar, Lead Vocal
Jukka Jylli - Bass, Backing Vocals
Sami Kuoppamäki - Drums, Percussion


Technical info

Input File: 02 Istwan .mp3
Channels : 2
Sample Rate : 44100
Precision : 16-bit
Duration : 00:04:01.65 = 10656721 samples = 18123.7 CDDA sectors
File Size : 9.67M
Bit Rate : 320k
Sample Encoding: MPEG audio (layer I, II or III)
Comments :
Title=Istwan
Artist=Kingston Wall
Album=II
Tracknumber=02
Year=1993



[ Hidden Text ]
Vastich
Кто не слушал, настоятельно рекомендую. Отличный музон
This is a "lo-fi" version of our main content. To view the full version with more information, formatting and images, please click here.
Invision Power Board © 2001-2020 Invision Power Services, Inc.