Help - Search - Members - Calendar
Full Version: Odious Devotion - Odious Devotion (2018)
Metal Area - Extreme Music Portal > Releases Area / Релизы > Archive > Low Bitrate Archive (read only)
aesteticvice


*Artist: Odious Devotion
*Album: Odious Devotion
*Year: 2018
*Genre: Atmospheric Black Metal
*Country: Finland
*Format: mp3@CBR320kbps
*Size: 118MB

Tracklist:
01. Intro
02. Morphosis
03. Pure
04. Obscure Dreamworlds
05. Stagnant
06. Repugnant
07. Vitsaus
08. Outro
******************************
Total playing time: 51:54



Extended info


Technical info

Input File: 4. Obscure Dreamworlds.mp3
Channels : 2
Sample Rate : 44100
Precision : 16-bit
Duration : 00:06:12.43 = 16424339 samples = 27932.5 CDDA sectors
File Size : 14.9M
Bit Rate : 321k
Sample Encoding: MPEG audio (layer I, II or III)
Comments :
Title=Obscure Dreamworlds
Artist=Odious Devotion
Album=Odious Devotion
Tracknumber=4/8
Year=2018
Genre=Atmospheric Black Metal



[ Hidden Text ]
aesteticvice
mirror
[ Hidden Text ]
Kehl05
Ютубе рип,срез на 15 тыс

Опять от тебя транскоды из 128 1488.gif
vosmidesijatye
ЦИТАТА(Kehl05 @ Dec 19 2018, 16:26:19) *
Опять от тебя транскоды из 128 1488.gif


А от тебя очередное бездоказательное бомбление, как обычно впрочем 1488.gif
Samaritianin
ЦИТАТА(vosmidesijatye @ 19th December 2018 - 14:27:16) *
очередное бездоказательное бомбление

А какие тут нужны еще доказательства-по спектрам и так все видно!
aesteticvice
ЦИТАТА(Samaritianin @ Dec 19 2018, 13:16:10) *
А какие тут нужны еще доказательства-по спектрам и так все видно!

1488.gif москитный флот домохозяев активизировался
vosmidesijatye
ЦИТАТА(aesteticvice @ Dec 19 2018, 17:18:20) *
1488.gif москитный флот домохозяев активизировался


НГ близко же gop_spb.gif alkash.gif 9.gif
Samaritianin
aesteticvice,
ЦИТАТА
москитный флот домохозяев активизировался

ну так а клуб любителей-переливал говно-шлачных рипов так и не унимался ни на день! bye.gif 1488.gif
Kehl05
vosmidesijatye,да мне то,собственно,все равно,гавно вам этот релизер приносит,а не мне.Слушай с ютуба шляпу переделанную из 128 и радуйся жизни.Он вас и модераторов за лохов держит,а вы как бакланы морковные хаваете его высеры-неформаты,ссылки левые ставит в модерацию, да транскоды из 128
vosmidesijatye
Ой тут прямо нашествие какое то...

Все релизы Олега меня полностью устраивают. В спектрах не секу, но качество звука на его релизах хорошее, претензий не имею.
Daale
Предлагаю всем скинуться мне 5 евро, я куплю релиз и залью. И проверим спектры 18.gif
aesteticvice
ЦИТАТА(Kehl05 @ Dec 19 2018, 13:29:09) *
vosmidesijatye,да мне то,собственно,все равно,гавно вам этот релизер приносит,а не мне.Слушай с ютуба шляпу переделанную из 128 и радуйся жизни.Он вас и модераторов за лохов держит,а вы как бакланы морковные хаваете его высеры-неформаты,ссылки левые ставит в модерацию, да транскоды из 128

и смачно так, с растягом, изначально сморкнувшись внутрь харкнул в монитор, так шоб мой пост заляпало и ничего сквозь харч не видно было

ЦИТАТА(Daale @ Dec 19 2018, 13:58:21) *
Предлагаю всем скинуться мне 5 евро, я куплю релиз и залью. И проверим спектры 18.gif

ищи дурака 1488.gif
vosmidesijatye
ЦИТАТА(Daale @ Dec 19 2018, 17:58:21) *
Предлагаю всем скинуться мне 5 евро, я куплю релиз и залью. И проверим спектры 18.gif


Ой, да эти два перчика (или один?) вечно необоснованно жужжат в темах Олега на пустом месте раздувая хай по поводу транскодов,

Не стоит никому скидываться, лучше купить достойный эксклюзив.

ЦИТАТА(aesteticvice @ Dec 19 2018, 18:02:17) *
и смачно так, с растягом, изначально сморкнувшись внутрь харкнул в монитор, так шоб мой пост заляпало и ничего сквозь харч не видно было


Я же кушаю, Олег, б...
Daale
ЦИТАТА(aesteticvice @ 19th December 2018 - 19:02:17) *
ищи дурака


Жадина 6.gif
vosmidesijatye
ЦИТАТА(Daale @ Dec 19 2018, 19:27:34) *
Жадина 6.gif


А тож, он на пиво сливает годовой бюджет какого нить Зимбабве так шо не до музыки тут bye.gif 25.gif
FullofHate
Очень толковая блекуха. Вроде простенько, а местами заставляет на себе хорошенько залипнуть. Удачные мелодии, умное построение композиций, треки несут в себе общее настроение. Продуманный релиз. И что самое интересное, группа взялась ниоткуда. Кроме бандкампа издателя никакой информации.
Реально серьезнейший дебют на финской сцене в 2018 году.

true_black.gif
Daale
В общем. Надумал я его купить. Сегодня/завтра сделаем-с
This is a "lo-fi" version of our main content. To view the full version with more information, formatting and images, please click here.
Invision Power Board © 2001-2019 Invision Power Services, Inc.