Help - Search - Members - Calendar
Full Version: Heavens Heels - Naked Shame (2018)
Metal Area - Extreme Music Portal > Releases Area / Релизы > Archive
aesteticvice


*Artist: Heavens Heels
*Album: Naked Shame
*Year: 2018
*Genre: Gothic/Doom Metal
*Country: United States
*Format: mp3@CBR320kbps
*Size: 88MB

Tracklist:
01. Morning Star
02. Thirty Pieces of Silver
03. Cypher Slayer
04. Topiary Maze
05. Vervais Ave.
06. Ave Bellum
07. Ashes to Ashes
08. Iyovee
******************************
Total playing time: 41:53



Extended info





Technical info

Input File: 02. Thirty Pieces of Silver.mp3
Channels : 2
Sample Rate : 44100
Precision : 16-bit
Duration : 00:04:41.98 = 12435494 samples = 21148.8 CDDA sectors
File Size : 11.3M
Bit Rate : 320k
Sample Encoding: MPEG audio (layer I, II or III)
Comments :
Title=Thirty Pieces of Silver
Artist=Heavens Heels
Album=Naked Shame
Tracknumber=2
Year=2018
Discnumber=1



[ Hidden Text ]
woldemort
Ну и вокал... 22.gif 17.gif
russ777
ЦИТАТА(woldemort @ 29th December 2018 - 16:55:27) *
Ну и вокал...

Та да... из-за него я и альбом весь ниасилил.. 23.gif
This is a "lo-fi" version of our main content. To view the full version with more information, formatting and images, please click here.
Invision Power Board © 2001-2020 Invision Power Services, Inc.