Help - Search - Members - Calendar
Full Version: Epica - Epica Vs Attack On Titan Songs [ep] (2018)
Metal Area - Extreme Music Portal > Releases Area / Релизы > Archive
aesteticvice


*Artist: Epica
*Album: Epica Vs Attack On Titan Songs [ep]
*Year: 2018
*Genre: Symphonic/Power Metal
*Country: Netherlands
*Format: mp3@VBR283kbps
*Size: 85MB

Tracklist:
1. Crimson Bow and Arrow 05:42
2. Wings of Freedom 05:34
3. If Inside These Walls Was a House 03:43
4. Dedicate Your Heart! 05:40
5. Crimson Bow and Arrow (instrumental) 05:42
6. Wings of Freedom (instrumental) 05:33
7. If Inside These Walls Was a House (instrumental) 03:43
8. Dedicate Your Heart! (instrumental) 05:40
******************************
Total playing time: 41:17



Extended info
Epica covers intro theme songs of the TV anime series "Attack on Titan [Shingeki no Kyojin]".
Dutch symphonic metal giants EPICA surprised their fans with a very special covers EP release entitled, EPICA VS. Attack On Titan. The release, which was only available in Japan, featured metal versions of the theme songs from the highly successful manga series with 70 Million copies in print turned worldwide aired anime "Attack On Titan". The band announced the EP will be available outside Japan on July 20th via Nuclear Blast Records.

Mark Jansen - Guitars (rhythm), Orchestrations, Vocals (harsh) (2003-present)
See also: Mayan, ex-Infernorama, ex-Sahara Dust, Universal Mind Project, ex-Carthagods, ex-After Forever, ex-ReVamp
Coen Janssen - Keyboards, Piano, Orchestrations (2003-present) See also: ex-Sahara Dust, ex-Kamelot
Simone Simons Vocals (2003-present) See also: ex-Sahara Dust, ex-Kamelot, ex-Mayan
Ariën van Weesenbeek - Drums, Vocals (grunts, spoken word) (2007-present)
See also: Mayan, ex-Down Till Dawn, ex-Edgecrusher, ex-Pandaemonium, ex-God Dethroned, ex-HDK, ex-Aborted, ex-Conspiracy, ex-Downslide
Isaac Delahaye Guitars (lead), Vocals (harsh) (2009-present) See also: ex-Down Till Dawn, ex-Edgecrusher, ex-Forcible, ex-God Dethroned, ex-Mayan, ex-Panopticum
Rob van der Loo - Bass (2012-present) See also: Freak Neil Inc., ex-Fifth, ex-Soulcatcher, ex-Form, Hangover Hero, Rob van der Loo, ex-Delain, ex-Mayan, ex-Exivious, ex-Hubi Meisel, ex-Sun Caged, ex-Triple 7


Technical info

Input File: 03-epica-if_inside_these_walls_was_a_house.mp3
Channels : 2
Sample Rate : 44100
Precision : 16-bit
Duration : 00:03:43.19 = 9842679 samples = 16739.2 CDDA sectors
File Size : 7.38M
Bit Rate : 265k
Sample Encoding: MPEG audio (layer I, II or III)
Comments :
Title=If Inside These Walls Was A House
Artist=Epica
Album=Epica vs Attack On Titan Songs
Tracknumber=3/8
Year=2018-00-00
Genre=Metal



[ Hidden Text ]
Dreamtale
aesteticvice
mirror
[ Hidden Text ]


sadmannn
А что это за выброс?.. 22.gif
Arseniy
Snowblind
Надо же, как на эту мангу наяривает нынешнее поколение оказывацца.
6666666
Очень вовремя.
vosmidesijatye
ЦИТАТА(Snowblind @ Jan 7 2019, 12:14:33) *
Надо же, как на эту мангу наяривает нынешнее поколение оказывацца.


Так это ж Япония, там такое модно. Сумневаюсь, шобы и в других странах массово стачивали стручки на все эти манги, это как если бы таиландскую диету повсеместно распространить.

Стафф же просто никакой. Это вам не Найтвиш с Аннет.
babanguida
Wondering if the hype around these kind of bands still exists since 2005... 1488.gif
AHBAnep
Классная ипиха. Я в восторге.
This is a "lo-fi" version of our main content. To view the full version with more information, formatting and images, please click here.
Invision Power Board © 2001-2020 Invision Power Services, Inc.