Help - Search - Members - Calendar
Full Version: My Darkest Time - Dawn (2018)
Metal Area - Extreme Music Portal > Releases Area / Релизы > Archive
aesteticvice


*Artist: My Darkest Time
*Album: Dawn
*Year: 2018
*Genre: Gothic/Doom/Death Metal
*Country: Macedonia
*Format: mp3@CBR320kbps
*Size: 101MB

Tracklist:
1. Two Angels 05:56
2. Mad 04:55
3. Don't Leave... 04:26
4. Dawn 04:38
5. Take Us Away 07:30
6. Open, O Doors 04:44
7. Embodiments of Dreams 06:11
8. Lord Have Mercy 05:32
******************************
Total playing time: 43:52




Extended info
Zarko Atanasov All instruments, Vocals (growls) (2005-present)
See also: Wipe Away, Smirenie, True Wisdom
Marina Atanasova Vocals (female) (2011-present)
See also: Wipe Away, Smirenie
Zoc Zoran Petrovski Guitars (lead) (2017-present)
See also: ex-Savaot
Martin Atanasov Vocals (2017-present)


Technical info

Input File: 02 - Mad.mp3
Channels : 2
Sample Rate : 44100
Precision : 16-bit
Duration : 00:04:55.59 = 13035563 samples = 22169.3 CDDA sectors
File Size : 11.9M
Bit Rate : 323k
Sample Encoding: MPEG audio (layer I, II or III)
Comments :
Title=Mad
Artist=My Darkest Time
Album=Dawn
Tracknumber=2
Year=2018



[ Hidden Text ]
bc_
Дум из ттх вышвырнуть к чертям собачьим.. В остатке имеем неудержимо галопирующий готик-метал с отвратительными вокалами обоих полов и псевдо-фолковыми фишками..
isvili
Я уж подумал что будет что то в духе ранней Тристании + Дракониан, а тут 22.gif
dawn7
QUOTE(bc_ @ Jan 12 2019, 16:33:34) *
Дум из ттх вышвырнуть к чертям собачьим.. В остатке имеем неудержимо галопирующий готик-метал с отвратительными вокалами обоих полов и псевдо-фолковыми фишками..


готик-метал???
This is a "lo-fi" version of our main content. To view the full version with more information, formatting and images, please click here.
Invision Power Board © 2001-2019 Invision Power Services, Inc.