*Artist: Belial
*Album: Strategy Is Everything [demo]
*Year: 1994
*Genre: Thrash Metal
*Country: United States
*Format: mp3@CBR128kbps
*Size: 19MB

Tracklist:
1. Rules And Regulations 03:12
2. Wall Of Humanity 02:12
3. Unseen 03:45
4. Birthright 02:54
5. Takeover 02:48
6. Instinct 03:18
7. The Earth Will Bleed ('94) 03:55
******************************
Total playing time: 22:04



Extended info
Band from Cranbury, New Jersey.
Demo downloaded from site done by Ken Lawton (vox/guitar).


Technical info

Input File: 01-Rules And Regulations.mp3
Channels : 2
Sample Rate : 44100
Precision : 16-bit
Duration : 00:03:12.55 = 8491367 samples = 14441.1 CDDA sectors
File Size : 3.08M
Bit Rate : 128k
Sample Encoding: MPEG audio (layer I, II or III)
Comments :
Title=Rules And Regulations
Artist=Belial (US, NJ)
Album=Strategy Is Everything (Demo)
Tracknumber=01
Year=1994
Genre=Thrash Metal



[ Hidden Text ]