Help - Search - Members - Calendar
Full Version: Dimlight - A Symphony Of Horrors (2019)
Metal Area - Extreme Music Portal > Releases Area / Релизы > Archive
necroscum


*Artist: Dimlight
*Album: A Symphony Of Horrors
*Year: 2019
*Genre: Dark/Death/Gothic Metal/Orchestral
*Country: Greece
*Format: mp3@CBR320kbps
*Size: 81MB

Tracklist:
01. The Solace in Death's Dreams 03:31
02. Descent into the Stygian Dark 02:04
03. Horror Unfurls Its Wings 04:11
04. Basaltic Towers of Silence 04:02
05. Where Abominations Rule 03:12
06. The Black Soul of Irkala Kar 05:00
07. Crawling Through Despair's Battlefield 01:28
08. Palace of the Elder Ones 02:18
09. The Grim Fate of the Blessed 02:10
10. Beyond Death's Icy Grip 02:33
******************************
Total playing time: 30:29






Technical info

Input File: 02 - Descent into the Stygian Dark.mp3
Channels : 2
Sample Rate : 44100
Precision : 16-bit
Duration : 00:02:04.07 = 5471267 samples = 9304.88 CDDA sectors
File Size : 5.61M
Bit Rate : 362k
Sample Encoding: MPEG audio (layer I, II or III)
Comments :
Title=Descent into the Stygian Dark
Artist=Dimlight
Album=A Symphony of Horrors
Tracknumber=2
Year=2019
Genre=Metal
Discnumber=1



[ Hidden Text ]
Mishok
Где Sanna? 6.gif
6666666
ЦИТАТА(Mishok @ 1st March 2019 - 23:41:50) *
Где Sanna? 6.gif

В Ораклс. Давно уже.

Я не понел, это что за релиз? Второй подряд альбом менее, чем за год?
vosmidesijatye
Архивы говорят, что да.
isvili
Был на их концерте лет 6-7 назад, очень не плохо на сцене рубят.
+ ATheisT +
Группа с афигенным дебютником, а после слушать нечего, пустышка.. 21.gif
6666666
...и забыл скачать.
6666666
...и не скачать. Перезалейте, плес.
6666666
ЦИТАТА(6666666 @ 13th July 2019 - 16:14:56) *
Перезалейте, плес.

BlackTroll
[ Hidden Text ]
Вот только Dark/Death/Gothic Metal там не особо присутствует.
6666666
Другой обменник, плес. И на прошлых метал вполне присутствовал.
vosmidesijatye
Карелия действительно дает скачать всего лишь 8.6 метра, после обрывается бессовестно.
avkruchinin
ЦИТАТА(vosmidesijatye @ Jul 21 2019, 17:55:09) *
Карелия действительно дает скачать всего лишь 8.6 метра, после обрывается бессовестно.

У меня пишет, что файла нет, совсем нет 23.gif
BlackTroll
[ Hidden Text ]
6666666
ЦИТАТА(BlackTroll @ 21st July 2019 - 07:33:55) *
Вот только Dark/Death/Gothic Metal там не особо присутствует.

Вот теперь понял, о чём ты.
Borderline1991
[ Hidden Text ]
This is a "lo-fi" version of our main content. To view the full version with more information, formatting and images, please click here.
Invision Power Board © 2001-2019 Invision Power Services, Inc.