Help - Search - Members - Calendar
Full Version: Ultra Silvam - The Spearwound Salvation (2019)
Metal Area - Extreme Music Portal > Releases Area / Релизы > Archive
Daale


*Artist: Ultra Silvam
*Album: The Spearwound Salvation
*Year: 2019
*Genre: Black Metal
*Country: Sweden
*Format: mp3@CBR320kbps
*Size: 66MB

Tracklist:
01. The Spearwound Salvation 03:12
02. Ödesalens uppenbarelse 05:09
03. Birth of a Mountain 04:03
04. Förintelsens andeväsen 01:57
05. Wings of Burial 03:20
06. A Skull Full of Stars 04:15
07. The First Wound 06:01
******************************
Total playing time: 27:57



Extended info
Promo stuff

SHADOW RECORDS is proud to present ULTRA SILVAM's striking debut album, The Spearwound Salvation, on CD, LP, and cassette tape formats.

Hailing from Malmö, Sweden, ULTRA SILVAM are a power-trio who honor their homeland's longstanding black metal idioms whilst injecting copious amounts of power and personality into the form. They made a quick-hitting yet auspicious debut in 2017 with their self-titled demo, which was later released on 7" vinyl that year by SHADOW RECORDS.

Taking that demo's foundation and fleshing out those ideas in a fuller and more realized form is the full-length The Spearwound Salvation. Tellingly titled, The Spearwound Salvation blisters forth with an incredibly ripped-raw style of black metal that possesses a poignant, magical sort of melodicism. At once familiar and foreign, ULTRA SILVAM attack with urgency and emotion but always with an palpably human touch that spits in the face of so much sterile "extreme metal." Every ringing chord, every bashed drum, every slaughtered tongue: each and every note and movement across the album bleeds an authenticity that's refreshing to behold. And yet, that would all be for naught if the band didn't possess commensurate songwriting chops - and indeed they do here, all seven songs making swift, enviously compact work within The Spearwound Salvation's 28 minutes. Many of these riffs will possess you for days, if not weeks or months or...

Present thy flesh to ULTRA SILVAM and prepare for The Spearwound Salvation!


Technical info

Input File: 3 - ULTRA SILVAM - BIRTH OF A MOUNTAIN.mp3
Channels : 2
Sample Rate : 44100
Precision : 16-bit
Duration : 00:04:02.56 = 10697028 samples = 18192.2 CDDA sectors
File Size : 9.73M
Bit Rate : 321k
Sample Encoding: MPEG audio (layer I, II or III)
Comments :
Title=Birth of a Mountain
Artist=Ultra Silvam
Album=The Spearwound Salvation
Tracknumber=3



[ Hidden Text ]
Абигор
[ Hidden Text ]
vosmidesijatye
Лоуфайно, лампово, приятственно.

Порадовали пиликающе-пищащие гитарки.
asog
Эти мне тоже NIFELHEIM напомнили, но вот из-за саунда что-то не вкатило (как-то всё размыто), пошёл слушать Devil's Force от NIFELHEIM
wolverine
Raw and old school Swedish Black Metal. Sometimes it sounds thrashy and reminds about Nifelheim and early Bathory. Very good album! true_black.gif
babanguida
That sounds good yes
tormoz
недурно
Brann
На фоне модных исландцев и уже менее популярных французов эти шведы действительно кажутся довольно самобытными. В действительности это отголоски стандартной шведятины эдак 10-летней давности - что-то в духе Orcivus или Styggelse.
This is a "lo-fi" version of our main content. To view the full version with more information, formatting and images, please click here.
Invision Power Board © 2001-2020 Invision Power Services, Inc.