Help - Search - Members - Calendar
Full Version: Frostveil - Ephemeral Visions (2019)
Metal Area - Extreme Music Portal > Releases Area / Релизы > Archive
Velmi


*Artist: Frostveil
*Album: Ephemeral Visions
*Year: 2019
*Genre: Black Metal
*Country: Australia
*Format: mp3@CBR320kbps
*Size: 146MB

Tracklist:
1. Echoes of Inexistence 02:51
2. Valiance 05:12
3. Tormented by Life 09:13
4. Orlok 07:58
5. Longing 07:25
6. Writhing in Tender Anguish 10:25
7. Tranquil Reflections 02:20
8. Ephemeral Visions 06:07
9. Salvation 09:33
10. Descent of the Final Cold 02:06
******************************
Total playing time: 1:03:10



Extended info
Dark Adversary Productions - DA084


Technical info

Input File: 03. Tormented By Life.mp3
Channels : 2
Sample Rate : 44100
Precision : 16-bit
Duration : 00:09:13.27 = 24398987 samples = 41494.9 CDDA sectors
File Size : 22.3M
Bit Rate : 322k
Sample Encoding: MPEG audio (layer I, II or III)
Comments :
Title=Tormented By Life
Artist=Frostveil
Album=Ephemeral Visions
Tracknumber=03/10
Year=2019
Genre=Black Metal



[ Hidden Text ]
Абигор
отражение -
[ Hidden Text ]
rewa
Очень крутой релиз. Мелодичный, атмосферный, жирный, с бравурным налётом таким в стиле пейгана или викинга. Паренёк в свои 20 лет смог сделать очень мощную вещь в одно рыло. Ещё чем-то Pure Wrath напомнило, но это не точно.
Whitefish
Хотелось бы более чистого сведения для такой длины треков; ударная волна с басом на 7-9 минут утомляет.
В целом — неплохо.
Andrew
[ Hidden Text ]
Arkwulf
Frostveil - Ephemeral Visions (2019), FLAC (tracks), Lossless 388 MB
[ Hidden Text ]
This is a "lo-fi" version of our main content. To view the full version with more information, formatting and images, please click here.
Invision Power Board © 2001-2020 Invision Power Services, Inc.