Help - Search - Members - Calendar
Full Version: Profanation - Into Cascades Of Blood And Burning Soil (2019)
Metal Area - Extreme Music Portal > Releases Area / Релизы > New Releases > Lossless
necroscum


*Artist: Profanation
*Album: Into Cascades Of Blood And Burning Soil
*Year: 2019
*Genre: Death Metal/Grindcore
*Country: Germany
*Format: mp3@CBR320kbps
*Size: 122MB

Tracklist:
01. Incantation 02:13
02. Into Cascades of Blood and Burning Soil 05:33
03. Seed of Evil 05:34
04. Silent God 05:16
05. Bloodbath in Heaven 05:06
06. Der Gemütliche 06:27
07. Unholy Brutality Unleashed 05:20
08. The Prophecy 05:13
09. Butcher's Joy 05:58
10. A Place to Pray - Ablaze for Prey 06:57
******************************
Total playing time: 53:37







Technical info

Input File: 2 - Into Cascades of Blood and Burning Soil.mp3
Channels : 2
Sample Rate : 44100
Precision : 16-bit
Duration : 00:05:21.32 = 14170344 samples = 24099.2 CDDA sectors
File Size : 12.9M
Bit Rate : 322k
Sample Encoding: MPEG audio (layer I, II or III)
Comments :
Title=Into Cascades of Blood and Burning Soil
Artist=Profanation
Album=Into Cascades of Blood and Burning Soil
Tracknumber=2
Year=2019
Genre=Alternative/Indie Rock/Metal
Discnumber=1



[ Hidden Text ]
Andrew
[ Hidden Text ]
oathzine
Flac

[ Hidden Text ]
This is a "lo-fi" version of our main content. To view the full version with more information, formatting and images, please click here.
Invision Power Board © 2001-2019 Invision Power Services, Inc.