Help - Search - Members - Calendar
Full Version: Neckbeard Deathcamp - So Much For The Tolerant Left (2019)
Metal Area - Extreme Music Portal > Releases Area / Релизы > Archive
necroscum


*Artist: Neckbeard Deathcamp
*Album: So Much For The Tolerant Left
*Year: 2019
*Genre: Raw Black Metal/Noise
*Country: United States
*Format: mp3@CBR320kbps
*Size: 99MB

Tracklist:
01. Cucked 2 the Phantom Menace 01:19
02. Shitpostnacht 04:44
03. Operation Neet 03:44
04. What Are the Cargo Pockets for Lanza Extra Mags 03:30
05. Horseshoe Theory 10:34
06. Bricks Out for Harambe 04:04
07. Tolerance Candle 03:53
08. Unironically Calling Someone the Untermensch 03:26
09. Conservative Crybullying 00:42
10. /R/Iamverysmart 04:11
11. Pozerfaust Division 02:42
******************************
Total playing time: 42:49




Technical info

Input File: 2 - Shitpostnacht.mp3
Channels : 2
Sample Rate : 44100
Precision : 16-bit
Duration : 00:04:43.97 = 12522901 samples = 21297.5 CDDA sectors
File Size : 11.5M
Bit Rate : 324k
Sample Encoding: MPEG audio (layer I, II or III)
Comments :
Title=Shitpostnacht
Artist=Neckbeard Deathcamp
Album=So Much for the Tolerant Left
Tracknumber=2/11
Year=2019
Genre=Black Metal
Discnumber=1/1



[ Hidden Text ]
babanguida
Sucks ass.
RUSP73
Anti-fascist satire, Parody of NSBM, Sick humour, Memes
babanguida
QUOTE(RUSP73 @ May 23 2019, 19:19:59) *
Anti-fascist satire, Parody of NSBM, Sick humour, Memes

I am not even sure that it is humour tbh, or they are loosing their time in vain 21.gif
ingram
никакой не Raw Black Metal/Noise, а бодрящий, веселый "war" (black/death) metal
This is a "lo-fi" version of our main content. To view the full version with more information, formatting and images, please click here.
Invision Power Board © 2001-2019 Invision Power Services, Inc.