Help - Search - Members - Calendar
Full Version: Ulvedharr - World Of Chaos (2019)
Metal Area - Extreme Music Portal > Releases Area / Релизы > Archive
Samaritianin


*Artist: Ulvedharr
*Album: World Of Chaos
*Year: 2019
*Genre: Death/Thrash Metal
*Country: Italy
*Format: mp3@CBR320kbps
*Size: 89MB

Tracklist:
1. What Have We Done? 04:44
2. Death Stare 04:45
3. Cold War 04:23
4. World of Chaos 04:18
5. Fire in the Hole 03:57
6. Chemical Wind Imbalance 02:15
7. Fallout 04:04
8. Silent Beholder 03:37
9. Pull the Trigger 03:45
10. Vision of Chaos 03:00
******************************
Total playing time: 38:48




Extended info
Michele Balduzzi Drums
Ark Vocals, Guitars
Marco Morandi Bass
Giuseppe Ciurlia Guitars


Technical info

Input File: 4 - World of Chaos.mp3
Channels : 2
Sample Rate : 44100
Precision : 16-bit
Duration : 00:04:18.57 = 11403113 samples = 19393 CDDA sectors
File Size : 10.4M
Bit Rate : 323k
Sample Encoding: MPEG audio (layer I, II or III)
Comments :
Title=World of Chaos
Artist=Ulvedharr
Album=World of Chaos
Tracknumber=4
Year=2019
Genre=Metal
Discnumber=1



[ Hidden Text ]
Andrew

По превью весьма неплохо.
This is a "lo-fi" version of our main content. To view the full version with more information, formatting and images, please click here.
Invision Power Board © 2001-2020 Invision Power Services, Inc.