Help - Search - Members - Calendar
Full Version: Mistralth - But A Walking Shadow (2019)
Metal Area - Extreme Music Portal > Releases Area / Релизы > Archive > Low Bitrate Archive (read only)
Samaritianin


*Artist: Mistralth
*Album: But A Walking Shadow
*Year: 2019
*Genre: Dark/Doom Metal
*Country: Finland
*Format: mp3@CBR320kbps
*Size: 91MB

Tracklist:
01. Intro
02. Grey
03. Forbidden
04. Breathe
05. Empty
06. Nothingness
******************************
Total playing time: 40:03




Extended info
Vocals and Lyrics - R.K.
Drums - Samu B.D.R.
Music - Juha S.



Technical info

Input File: 04 - Breathe.mp3
Channels : 2
Sample Rate : 44100
Precision : 16-bit
Duration : 00:05:47.10 = 15306978 samples = 26032.3 CDDA sectors
File Size : 13.9M
Bit Rate : 320k
Sample Encoding: MPEG audio (layer I, II or III)
Comments :
Title=Breathe
Artist=Mistralth
Album=But a Walking Shadow
Tracknumber=4
Year=2019
Genre=Metal



[ Hidden Text ]
FuneralWolf
апконверт, без намёка на 320
6666666
Знакомое название, я угрожал им прежде?
darkbrides
CDDA
This is a "lo-fi" version of our main content. To view the full version with more information, formatting and images, please click here.
Invision Power Board © 2001-2019 Invision Power Services, Inc.