Help - Search - Members - Calendar
Full Version: Idolatry - In Nomine Mortis (2019)
Metal Area - Extreme Music Portal > Releases Area / Релизы > New Releases > Lossless
Samaritianin


*Artist: Idolatry
*Album: In Nomine Mortis
*Year: 2019
*Genre: Black Metal
*Country: Canada
*Format: mp3@CBR320kbps
*Size: 101MB

Tracklist:
1. Ex Nihilio 01:27
2. Toward the Widening Eye 05:57
3. The Calling Void 03:22
4. Hail, Death 04:53
5. Reborn in Poison 06:01
6. Revelations in Black 03:38
7. Breathing Dust 04:53
8. Hidden; Quivering 04:34
9. The Serpentine Possession 06:27
10. Nihil Fit 02:18
******************************
Total playing time: 43:30




Extended info
Lycaon Vollmond Guitars
Daemonikus Abominor Drums
Tormentus Prometheon Bass
Ba'al Berith Vocals
Sludge Guitars



Technical info

Input File: 04. Hail, Death.mp3
Channels : 2
Sample Rate : 44100
Precision : 16-bit
Duration : 00:04:53.95 = 12963151 samples = 22046.2 CDDA sectors
File Size : 11.9M
Bit Rate : 324k
Sample Encoding: MPEG audio (layer I, II or III)
Comments :
Title=Hail, Death
Artist=Idolatry
Album=In Nomine Mortis
Tracknumber=4
Year=2019
Discnumber=1



[ Hidden Text ]
Samaritianin
Cloud Mail 320
[ Hidden Text ]
Arkwulf
Idolatry - In Nomine Mortis (2019), FLAC (tracks), Lossless 303 MB
[ Hidden Text ]
This is a "lo-fi" version of our main content. To view the full version with more information, formatting and images, please click here.
Invision Power Board © 2001-2020 Invision Power Services, Inc.