Help - Search - Members - Calendar
Full Version: Manipulation - Mind Control Ultra (2019)
Metal Area - Extreme Music Portal > Releases Area / Релизы > Archive
Samaritianin


*Artist: Manipulation
*Album: Mind Control Ultra
*Year: 2019
*Genre: Death Metal
*Country: Poland
*Format: mp3@CBR320kbps
*Size: 110MB

Tracklist:
1. Instruments of Change
2. Worshipers of Mirage
3. Slaves of the System
4. From the Inside
5. MK-Ultra
6. Limits
7. Energy of the Universe
8. The Skull with Acid in Eye
9. Room 216
10. Trample the Weak
11. RFID
12. Tale Told by an Idiot
******************************
Total playing time: 46:26




Extended info
Rado.Slav Guitars
See also: Empatic, ex-Deathbringer
Bysiek Bass (2001-2007, 2010-present)
See also: ex-Sinful Souls
Kriss Drums (2001-2007, 2010-present)
See also: Deathbringer, Disloyal, Empatic, Saw, ex-Prafuria
Vulture Guitars (2001-2007, 2010-present)
Kret Vocals (2017-present)
See also: Cinis




Technical info

Input File: Manipulation - Mind Control Ultra - 03. Slaves of the System.mp3
Channels : 2
Sample Rate : 44100
Precision : 16-bit
Duration : 00:04:24.66 = 11671682 samples = 19849.8 CDDA sectors
File Size : 10.9M
Bit Rate : 331k
Sample Encoding: MPEG audio (layer I, II or III)
Comments :
Title=Slaves of the System
Artist=Manipulation
Album=Mind Control Ultra
Tracknumber=03
Year=2019
Genre=Metal



[ Hidden Text ]
Samaritianin
FLAC 346 mb
[ Hidden Text ]
This is a "lo-fi" version of our main content. To view the full version with more information, formatting and images, please click here.
Invision Power Board © 2001-2019 Invision Power Services, Inc.