Help - Search - Members - Calendar
Full Version: Necro Antagonist - Necromorphic Psychopathy [ep] (2019)
Metal Area - Extreme Music Portal > Releases Area / Релизы > New Releases > Lossless
Samaritianin


*Artist: Necro Antagonist
*Album: Necromorphic Psychopathy [ep]
*Year: 2019
*Genre: Brutal Death Metal
*Country: Philippines
*Format: mp3@CBR320kbps
*Size: 43MB

Tracklist:
1. Necromorphic Psychopathy 04:28
2. Inhuman Execration 05:00
3. Bloodgina 04:17
4. Wrath Of Depravity (feat. Januaryo Hardy of Perverted Dexterity) 04:30
******************************
Total playing time: 18:15




Extended info
Bijay Callejo - Bass / Vocals / Drum Programming
Ren De Vera - Guitars
Session/Touring member:
Jerrick Pataksil - Vocals
Carl Ancheta - Drums


Technical info

Input File: 02 Inhuman Execration.mp3
Channels : 2
Sample Rate : 44100
Precision : 16-bit
Duration : 00:05:00.09 = 13233749 samples = 22506.4 CDDA sectors
File Size : 12.2M
Bit Rate : 326k
Sample Encoding: MPEG audio (layer I, II or III)
Comments :
Title=Inhuman Execration
Artist=NECRO ANTAGONIST
Album=Necromorphic Psychopathy
Tracknumber=2
Year=2019



[ Hidden Text ]
oathzine
Flac

[ Hidden Text ]
This is a "lo-fi" version of our main content. To view the full version with more information, formatting and images, please click here.
Invision Power Board © 2001-2019 Invision Power Services, Inc.