Help - Search - Members - Calendar
Full Version: Deathgeist - 666 (2019)
Metal Area - Extreme Music Portal > Releases Area / Релизы > New Releases > Lossless
Samaritianin


*Artist: Deathgeist
*Album: 666
*Year: 2019
*Genre: Old School Thrash Metal
*Country: Brazil
*Format: mp3@CBR320kbps
*Size: 71MB

Tracklist:
1. Darkness Around
2. 666
3. Domain
4. Human Slaughter
5. Black Moon Rites
6. Creepshow
7. Virtual Murder
8. Returning to Sodom
9. The Man Who Was Death
******************************
Total playing time: 30:47




Extended info
CD-Rip
Maurício Bertoni Bass (2017-present)
See also: ex-Brutal Faith, ex-DamageWar, ex-Güdenläwd, ex-Panzer, ex-Portas Negras, ex-Sakrah, ex-Voiden, ex-Reviolence, ex-Mystic, ex-Pink Dolls
Goro Drums (2017-present)
See also: Prepared to Kill, ex-Maligna, ex-Fire Diamond, ex-Speed Metal Hell, ex-Excalibur
Victor Regep Guitars (2017-present)
See also: ex-Bywar
Adriano Perfetto Guitars, Vocals (2017-present)
See also: Timor Trail, ex-Bywar


Technical info

Input File: 04 - Human Slaughter.mp3
Channels : 2
Sample Rate : 44100
Precision : 16-bit
Duration : 00:03:30.72 = 9292620 samples = 15803.8 CDDA sectors
File Size : 8.43M
Bit Rate : 320k
Sample Encoding: MPEG audio (layer I, II or III)
Comments :
Title=Human Slaughter
Artist=Deathgeist
Album=666
Tracknumber=4
Year=2019
Genre=Thrash Metal



[ Hidden Text ]
Samaritianin
Cloud Mail 320
[ Hidden Text ]
Samaritianin
Отличный олдовый душевный треш играют Бразильцы 20.gif
Пожалуй-за последние месяцы самый лучший который я слушал.
Phantom_Voodoo
Хороший альбом, бывший вокалист Bywar здесь.
Samaritianin
FLAC (Tracks) 228 mb
[ Hidden Text ]
This is a "lo-fi" version of our main content. To view the full version with more information, formatting and images, please click here.
Invision Power Board © 2001-2019 Invision Power Services, Inc.