Help - Search - Members - Calendar
Full Version: Wandar - Zyklus (2019)
Metal Area - Extreme Music Portal > Releases Area / Релизы > Archive
Samaritianin


*Artist: Wandar
*Album: Zyklus
*Year: 2019
*Genre: Black Metal
*Country: Germany
*Format: mp3@CBR320kbps
*Size: 122MB

Tracklist:
1. Winden
2. Tothfall
3. Fylgia
4. Rast
5. Se(e)hen
6. Heimgang
7. Basalt
******************************
Total playing time: 53:08




Extended info
Sigurdur Bass
Westram Guitars
Zazhgul Guitars
Skoll von Kallenheim Vocals
See also: Idhafels, Insomnia Astrorum, ex-Haradwaith, ex-Neun Welten
Totz Drums (2013-present)
See also: ex-Into Obscurity, ex-Wasted Future, ex-Zum Baischpiel



Technical info

Input File: 03. Fylgia.mp3
Channels : 2
Sample Rate : 44100
Precision : 16-bit
Duration : 00:08:29.63 = 22474595 samples = 38222.1 CDDA sectors
File Size : 20.4M
Bit Rate : 320k
Sample Encoding: MPEG audio (layer I, II or III)
Comments :
Title=Fylgia
Artist=Wandar
Album=Zyklus
Tracknumber=3
Year=2019-19-20
Discnumber=1



[ Hidden Text ]
Vitald
Без особых изысков атмоблэк. Но присутствует неудержимое желание переслушивать вновь и вновь. Завораживающую атмосферу накрутила немчура в этой работе.
lestllk
[ Hidden Text ]
Aectan
Хороший альбом, приятно слушается)
Emm Human
Первый раз прочитал как "Вандам" 1488.gif
Nemez
один из лучших релизов года pray.gif
хорошо постарались за 7 лет
FlammenTod666
в хорошем качестве

[ Hidden Text ]
This is a "lo-fi" version of our main content. To view the full version with more information, formatting and images, please click here.
Invision Power Board © 2001-2019 Invision Power Services, Inc.