Help - Search - Members - Calendar
Full Version: Antilife - Silence Under The Sun (2019)
Metal Area - Extreme Music Portal > Releases Area / Релизы > Archive
demenn


*Artist: Antilife
*Album: Silence Under The Sun
*Year: 2019
*Genre: Depressive Black Metal
*Country: France
*Format: mp3@CBR320kbps
*Size: 92MB

Tracklist:
01. Don't Fear The Devil (Intro) 01:25
02. L'Hymne A La Mort 06:00
03. Tbilissi 05:31
04. Don't Fear Suicide 04:53
05. Le Sang Bouilli 05:26
06. Land Of My Demise 05:19
07. Silence Under The Sun 04:58
08. Satan's Embrace 06:24
******************************
Total playing time: 40:00




Technical info

Input File: 02 L\'Hymne A La Mort.mp3
Channels : 2
Sample Rate : 44100
Precision : 16-bit
Duration : 00:06:00.09 = 15880145 samples = 27007 CDDA sectors
File Size : 14.4M
Bit Rate : 320k
Sample Encoding: MPEG audio (layer I, II or III)
Comments :
Title=L'Hymne A La Mort
Artist=Antilife
Album=Silence Under The Sun
Tracknumber=02
Year=2019
Genre=Black Metal



[ Hidden Text ]
NecroButcher
Пронзающие уши свинячьи визги вокал напоминает Наттрамна, ещё слышен Lifelover
В Tbilissi довольно приятное "На-на-на-на-на-наа"....
Обложка могла обойтись и без этой скудной рамки
Понравились треки 03, 05, 06, 08.
Лучше бы 07 был инструменталом, дабы подходить под название
sta1081
Первый более удачный был! (2015)
isvili
Вполне достойно и качественно.
babanguida
KVRT
музыка - да, вокал - нет..
This is a "lo-fi" version of our main content. To view the full version with more information, formatting and images, please click here.
Invision Power Board © 2001-2019 Invision Power Services, Inc.