Help - Search - Members - Calendar
Full Version: Forces United - Egorov 2 - Любить Дракона (2019)
Metal Area - Extreme Music Portal > Releases Area / Релизы > Archive
TDM


*Artist: Forces United
*Album: Egorov 2 - Любить Дракона
*Year: 2019
*Genre: Power Metal
*Country: Russian Federation
*Format: mp3@CBR320kbps
*Size: 238MB

Tracklist:
CD1: Любить Дракона
01. Light and Darkness 4:10
02. Гастрольная 3:15
03. Utopia 4:16
04. Убить дракона 4:17
05. Любить дракона 3:49
06. Another Level 3:39
07. Леонардо 3:37
08. Life You Have to Live 5:35
09. Война миров 4:11
10. Был тогда другим наш мир... 4:55
11. Кто мы? 4:16
12. Гагарин (MIX2019) 4:36
13. День рождения 4:11

CD2:EgorOFF
01. Beckoning Heig 3:32
02. Lie 3:52
03. Facing the Storm 3:22
04. Father to Son 2:47
05. Take a Breath 4:08
06. Counting Numbers 2:04
07. The Circle of Hurt 3:19
08. The Vow 3:45
09. Special 3:28
10. The Voice 4:04
******************************
Total playing time: 1:29:08

Technical info

Input File: 05 - Любить Дракона.mp3
Channels : 2
Sample Rate : 44100
Precision : 16-bit
Duration : 00:03:48.93 = 10095637 samples = 17169.5 CDDA sectors
File Size : 9.16M
Bit Rate : 320k
Sample Encoding: MPEG audio (layer I, II or III)
Comments :
Title=Любить Дракона
Artist=Forces United
Album=Любить Дракона
Tracknumber=5
Year=2019
Genre=Power Metal



[ Hidden Text ]
Hellraiser
ЦИТАТА(TDM @ 6th July 2019 - 09:25:30) *
- Egorov 2 -

Откуда двойка-то взялась? на обложке нету. )
Arseniy
Лучше бы «Судный день» залил.
Герб
ЦИТАТА(TDM @ 6th July 2019 - 09:25:30) *
04. Убить дракона 4:17
05. Любить дракона 3:49
Прям по грайнду.
Brutal
ЦИТАТА(Герб @ 7th July 2019 - 19:32:34) *
ЦИТАТА(TDM @ 6th July 2019 - 09:25:30) 04. Убить дракона 4:17 05. Любить дракона 3:49Прям по грайнду.

по горграйнду!
SAPOGi
hmm.gif
ЦИТАТА(Arseniy @ Jul 7 2019, 09:07:22) *
Лучше бы «Судный день» залил.

Slam91
Какая мерзость, прости господи. Ещё кто-то донатит на подобные "релизы".
Evilded
ЦИТАТА(Slam91 @ Jul 8 2019, 00:02:53) *
Какая мерзость, прости господи. Ещё кто-то донатит на подобные "релизы".

И не говори. по слухам, там была хитрооппая акция, по которой, донатя на это, получаешь две свежие Ип-шки бони нема. многие любители металлического шлягера повелись на эту авантюру. кругом наедалово. расход
This is a "lo-fi" version of our main content. To view the full version with more information, formatting and images, please click here.
Invision Power Board © 2001-2020 Invision Power Services, Inc.