Help - Search - Members - Calendar
Full Version: Rotting Christ & Varathron - Duality Of The Unholy Existence [split] (2019)
Metal Area - Extreme Music Portal > Releases Area / Релизы > Archive
Panacea


*Artist: Rotting Christ & Varathron
*Album: Duality Of The Unholy Existence [split]
*Year: 2019
*Genre: Melodic Black Metal | Black Metal
*Country: Greece | Greece
*Format: mp3@CBR320kbps
*Size: 22MB

Tracklist:
Rotting Christ:
1. Spiritus Sancti 04:50
Varathron:
2. Shaytan 04:36
******************************
Total playing time: 9:26



Extended info
222 copies pressed on gold vinyl and 777 copies on black vinyl.
Hells Headbangers Records.


Technical info

Input File: 02 - Varathron - Shaytan.mp3
Channels : 2
Sample Rate : 44100
Precision : 16-bit
Duration : 00:04:36.08 = 12175128 samples = 20706 CDDA sectors
File Size : 11.2M
Bit Rate : 323k
Sample Encoding: MPEG audio (layer I, II or III)
Comments :
Title=Shaytan
Artist=Varathron
Album=Duality Of The Unholy Existence
Tracknumber=2
Year=2019
Genre=Black Metal



[ Hidden Text ]
neoatheist
Офигенная вещица от Гниющего, да и Varathron не отстали! 20.gif
Sangreal
Очередной, уже давно набивший оскомину, пресный самоповтор от RC.
И приятная песня от V в классическом греческом стиле 90-х.

Зачем?
nagval
Не удачный
RUSP73
Шляпа
vosmidesijatye
ЦИТАТА(RUSP73 @ Jul 11 2019, 19:58:19) *
Шляпа


Хорошая (американская) стоит приличных денег, не обижайте сей аксессуар. 25.gif

Сплит удался, ребята тарахтят на отлично, каждый в своем стиле.
RUSP73
ЦИТАТА(vosmidesijatye @ Jul 11 2019, 19:01:05) *
Хорошая (американская) стоит приличных денег, не обижайте сей аксессуар. 25.gif

Сплит удался, ребята тарахтят на отлично, каждый в своем стиле.

Кому как
Роттинги давно не торкают. Тока 93 и 94, а Varathron чет очень мелодичен - надо послухать их крайний альбум)
Dmitry1977
Насколько прекрасен Varathron, настолько убог Rotting Christ. Что, в общем-то, было слегка предсказуемо.
Wizard_in_Black
ЦИТАТА(Dmitry1977 @ Jul 17 2019, 06:06:45) *
Насколько прекрасен Varathron, настолько убог Rotting Christ. Что, в общем-то, было слегка предсказуемо.


Трудно не согласится. Varathron на долго остается в памяти с этой песней. Роттинги здесь прозвучали невзрачно и бесхребетно. Это печально потому что от Гниющего все таки ожидаешь услышать нечто более вразумительное. Rotting christ яркий пример когда нужно взять творческую паузу и переосмыслить свою деятельность, ибо количество с постоянством пошли во вред качеству.

p.s. Винил все равно заказал ибо Varathron pray.gif pray.gif pray.gif
This is a "lo-fi" version of our main content. To view the full version with more information, formatting and images, please click here.
Invision Power Board © 2001-2019 Invision Power Services, Inc.