Help - Search - Members - Calendar
Full Version: Stavesail - The Anchor//The Construct (2019)
Metal Area - Extreme Music Portal > Releases Area / Релизы > New Releases
necroscum


*Artist: Stavesail
*Album: The Anchor//The Construct
*Year: 2019
*Genre: Technical Death Metal/Deathcore
*Country: United States
*Format: mp3@CBR320kbps
*Size: 93MB

Tracklist:
01. Ephemeral 05:09
02. Oblivion 03:28
03. Trust No One 05:47
04. The Anchor 01:09
05. Drowning in the Wake (feat. Adam Blea) 04:30
06. Burial 05:10
07. Lost 04:07
08. Above the Broken 05:12
09. The Construct 02:44
10. Take the Day 03:12
******************************
Total playing time: 40:28




Technical info

Input File: 2 - Oblivion.mp3
Channels : 2
Sample Rate : 44100
Precision : 16-bit
Duration : 00:03:28.10 = 9177298 samples = 15607.6 CDDA sectors
File Size : 8.37M
Bit Rate : 322k
Sample Encoding: MPEG audio (layer I, II or III)
Comments :
Title=Oblivion
Artist=Stavesail
Album=The Anchor // the Construct
Tracknumber=2
Year=2019
Genre=Metal
Discnumber=1



[ Hidden Text ]
Nomore
Послушаем что за оно,спасибо!
This is a "lo-fi" version of our main content. To view the full version with more information, formatting and images, please click here.
Invision Power Board © 2001-2019 Invision Power Services, Inc.