Help - Search - Members - Calendar
Full Version: Creationism Denied - Piercing Darkness [ep] (2019)
Metal Area - Extreme Music Portal > Releases Area / Релизы > Archive
necroscum


*Artist: Creationism Denied
*Album: Piercing Darkness [ep]
*Year: 2019
*Genre: Death Metal
*Country: Brazil
*Format: mp3@CBR320kbps
*Size: 51MB

Tracklist:
01. Sworn of Death
02. Dead Flesh Architect
03. Run, Hide, Pray!
04. Piercing Darkness
05. The Animal
06. Breeding the Plague
07. Christ the Deceiver
******************************
Total playing time: 22:11



Technical info

Input File: 02. Dead Flesh Architect.mp3
Channels : 2
Sample Rate : 44100
Precision : 16-bit
Duration : 00:03:05.25 = 8169393 samples = 13893.5 CDDA sectors
File Size : 7.66M
Bit Rate : 331k
Sample Encoding: MPEG audio (layer I, II or III)
Comments :
Title=Dead Flesh Architect
Artist=Creationism Denied
Album=Piercing Darkness
Tracknumber=2/7
Year=2019
Genre=9
Discnumber=1/1



[ Hidden Text ]
AHBAnep
https://www.youtube.com/watch?v=ln7x_5PwSSU
This is a "lo-fi" version of our main content. To view the full version with more information, formatting and images, please click here.
Invision Power Board © 2001-2020 Invision Power Services, Inc.