Help - Search - Members - Calendar
Full Version: Jasun Tipton - Seduction (2005)
Metal Area - Extreme Music Portal > Releases Area / Релизы > Archive
TDM


*Artist: Jasun Tipton
*Album: Seduction
*Year: 2005
*Genre: Instrumental Progressive Metal
*Country: United States
*Format: mp3@CBR320kbps
*Size: 111MB

Tracklist:
1. Tears From the Moon 04:35
2. Seduction 05:27
3. Question & Answer 06:02
4. A Rise of Tension 03:13
5. Christina 04:24
6. Falling From the Sky 04:44
7. The Way You Move 03:11
8. Slow Dancing 04:43
9. Sunrise 02:10
10. Ya La Blu Tibia 03:36
11. Question & Answer II 06:01
******************************
Total playing time: 48:06

Technical info

Input File: 02 - Seduction.mp3
Channels : 2
Sample Rate : 44100
Precision : 16-bit
Duration : 00:05:27.49 = 14442397 samples = 24561.9 CDDA sectors
File Size : 13.2M
Bit Rate : 323k
Sample Encoding: MPEG audio (layer I, II or III)
Comments :
Title=Seduction
Artist=Jasun Tipton
Album=Seduction
Tracknumber=02/11
Year=2005
Genre=Progressive Metal / Instrumental



[ Hidden Text ]
TDM
Был удивлён отсутствием альбома на форуме, он раньше точно выкладывался. Вроде бы. Может быть. Музыкально сабж на пятерку.
Old Vyaine
QUOTE(TDM @ 11th July 2019 - 18:42:39) *
10. Ya La Blu Tibia 03:36


Хотелось бы в общих чертах понять, что товарищ имеет в виду.
Tarelka
какую мысль пытаются донести посредством музыки?
TDM
Товарищ любит Антона, это же очевидно!
Old Vyaine
Но любит ли товарища Антон?
Oskulum
AHBAnep
Был точно тут такой альбом. Меня не впечатлил. Zero Hour его куда интереснее.
Shadowman
Местами приятно для слуха. Но когда начинает бездумно поливать без остановки, хочется попросить его выключить гитару и не портить музыку.
Yarri
Не знаю, откуда брал. Но в коллекции у меня есть.

ЦИТАТА(AHBAnep @ Jul 12 2019, 18:07:39) *
Был точно тут такой альбом. Меня не впечатлил. Zero Hour его куда интереснее.

И + Cynthesis.
This is a "lo-fi" version of our main content. To view the full version with more information, formatting and images, please click here.
Invision Power Board © 2001-2019 Invision Power Services, Inc.