Help - Search - Members - Calendar
Full Version: Necroratory - III (2019)
Metal Area - Extreme Music Portal > Releases Area / Релизы > New Releases
Samaritianin


*Artist: Necroratory
*Album: III
*Year: 2019
*Genre: Black Metal
*Country: Hungary
*Format: mp3@CBR320kbps
*Size: 110MB

Tracklist:
1. Exordium 02:25
2. Az eskü 04:05
3. I.N.R.I. 03:54
4. A vérvonal 06:00
5. Az érkezés 05:42
6. Ars Moriendi 04:08
7. Bomlás 05:26
8. Érintés 04:22
9. Vízió 03:25
10. Kultusz 07:04
******************************
Total playing time: 46:31




Extended info
Attila Maday Guitars (2010-present)
Ákos Fábián Vocals (2010-2015, 2016-present)
Balázs Pöcz Drums (2012-present)
See also: Clitgore, Gungnir, Paediatrician, ex-Baskíria, ex-Tenowar, ex-Teurgia, ex-The Konstellation


Technical info

Input File: 04 A Vérvonal.mp3
Channels : 2
Sample Rate : 44100
Precision : 16-bit
Duration : 00:06:00.93 = 15916881 samples = 27069.5 CDDA sectors
File Size : 14.8M
Bit Rate : 328k
Sample Encoding: MPEG audio (layer I, II or III)
Comments :
Title=A Vérvonal
Artist=Necroratory
Album=Iii.
Tracknumber=04
Year=2019
Genre=Black Metal



[ Hidden Text ]
Andrew
Очень неплохо, красиво и мелодично - как по мне так Melodic Black.
isvili
Хороший альбомчик, мелодичный и агрессивный.
Aectan
Примитивненько, не неплохо, приятно слушается. Хотя и несколько однообразно.
This is a "lo-fi" version of our main content. To view the full version with more information, formatting and images, please click here.
Invision Power Board © 2001-2019 Invision Power Services, Inc.