Help - Search - Members - Calendar
Full Version: Lycanthropus - Blood & War (2019)
Metal Area - Extreme Music Portal > Releases Area / Релизы > New Releases
TDM


*Artist: Lycanthropus
*Album: Blood & War
*Year: 2019
*Genre: Black Metal
*Country: Sweden
*Format: mp3@CBR320kbps
*Size: 76MB

Tracklist:
1. Intro 00:38
2. Let It Begin 02:45
3. Blood & War 03:15
4. Moon of the Wolf 02:58
5. Massacre 02:03
6. 1000 Years 04:10
7. Kick & Kill 01:45
8. Betrayal 04:05
9. Berserker 04:53
10. Viking 01:55
11. The Wolfpack 04:20
******************************
Total playing time: 32:47



Extended info
Годнота!


Technical info

Input File: 05 - Massacre.mp3
Channels : 2
Sample Rate : 44100
Precision : 16-bit
Duration : 00:02:03.46 = 5444630 samples = 9259.57 CDDA sectors
File Size : 4.98M
Bit Rate : 323k
Sample Encoding: MPEG audio (layer I, II or III)
Comments :
Title=Massacre
Artist=Lycanthropus
Album=Blood & War
Tracknumber=5
Year=2019
Genre=Black Metal



[ Hidden Text ]
TDM
Задорная, местами диско, но довольно однотипная жужжалка. В целом, хорошо.
judaz
ЦИТАТА(TDM @ Jul 12 2019, 09:15:49) *
довольно однотипная жужжалка.

Наоборот, в рамках олдскульного блэка альбом максимально разнообразен. Тут есть все - и долба, и среднетемповые вещи, и панковский расколбас. Разве что акустической баллады не хватает до полного комплекта.
TDM
ЦИТАТА(judaz @ Jul 12 2019, 12:25:40) *
Наоборот, в рамках олдскульного блэка альбом максимально разнообразен. Тут есть все - и долба, и среднетемповые вещи, и панковский расколбас. Разве что акустической баллады не хватает до полного комплекта.

Акустика на первом альбоме bye.gif
Я бы сказал внутри композиций разнообразия не хватает
judaz
ЦИТАТА(TDM @ Jul 12 2019, 10:38:46) *
Акустика на первом альбоме bye.gif

Да, как раз слушаю его. 9.gif

ЦИТАТА(TDM @ Jul 12 2019, 10:38:46) *
Я бы сказал внутри композиций разнообразия не хватает

Ну дык а какое особое разнообразие может быть в старошкольном блэке? Ранние Иммортал с Дарктроном могли целую песню на одном аккорде пробренчать. 1488.gif
TDM
Верно, если следовать канону старой школы, то все очень добротно и хорошо.
Но я сам по себе предпочитаю посложнее и поинтереснее.
ancientuscoronero
Отличный альбом, с каноничными идеями, но воспринимается незаезженно и с энтузиазмом. Тут наследие и Darkthrone и Absurd, но цельно, без разрывов, да ещё в рамках своей манеры. Казалось бы, рецепт прост, но насколько органично звучит.
Wizard_in_Black
Звучит весьма угарно и действительно по олдскулу. Такие записи нужно ценить
Razorbladeswaltz
mirror, pls
Абигор
Оба альбома Blood & War / Lycanthropus одним архивом:
[ Hidden Text ]
Razorbladeswaltz
ЦИТАТА(Абигор @ Jul 27 2019, 20:02:39) *
Оба альбома Blood & War / Lycanthropus одним архивом:


атдуши 25.gif
TDM
dwarf-1.gif true_black.gif
Razorbladeswaltz
альбом - пушка. просто как цепь с крюком. и цепляет так же.
This is a "lo-fi" version of our main content. To view the full version with more information, formatting and images, please click here.
Invision Power Board © 2001-2019 Invision Power Services, Inc.