Help - Search - Members - Calendar
Full Version: Red Scalp - Lost Ghosts (2017)
Metal Area - Extreme Music Portal > Releases Area / Релизы > New Releases
osthethrasher


*Artist: Red Scalp
*Album: Lost Ghosts
*Year: 2017
*Genre: Stoner/Doom Metal/Rock
*Country: Poland
*Format: mp3@CBR320kbps
*Size: 87MB

Tracklist:
1. Portal 04:46
2. Faces 06:30
3. Lost Ghost 09:43
4. Mantra Bufala 08:34
5. With the Wind 08:33
******************************
Total playing time: 38:06



Technical info

Input File: 01. Portal.mp3
Channels : 2
Sample Rate : 44100
Precision : 16-bit
Duration : 00:04:46.48 = 12633636 samples = 21485.8 CDDA sectors
File Size : 11.6M
Bit Rate : 323k
Sample Encoding: MPEG audio (layer I, II or III)
Comments :
Title=Portal
Artist=Red Scalp
Album=Lost Ghosts
Tracknumber=1
Year=2017
Genre=Stoner Rock/Metal



[ Hidden Text ]
AHBAnep
This is a "lo-fi" version of our main content. To view the full version with more information, formatting and images, please click here.
Invision Power Board © 2001-2019 Invision Power Services, Inc.