Help - Search - Members - Calendar
Full Version: Wait - We Are In Transit [ep] (2019)
Metal Area - Extreme Music Portal > Releases Area / Релизы > Archive
Samaritianin


*Artist: Wait
*Album: We Are In Transit [ep]
*Year: 2019
*Genre: Progressive Death Metal
*Country: United States
*Format: mp3@CBR320kbps
*Size: 56MB

Tracklist:
01. Wonder 08:51
02. Mushroom Song 08:36
03. Tomorrow Awaits 06:57
******************************
Total playing time: 24:24




Extended info
Charlie Eron - guitar
Max Phelps - vocals
Alex Weber - bass
Anup Sastry - drums


Technical info

Input File: 03 - Tomorrow Awaits.mp3
Channels : 2
Sample Rate : 44100
Precision : 16-bit
Duration : 00:06:57.51 = 18412279 samples = 31313.4 CDDA sectors
File Size : 17.0M
Bit Rate : 325k
Sample Encoding: MPEG audio (layer I, II or III)
Comments :
Title=Tomorrow Awaits
Artist=WAIT
Album=We Are in Transit
Tracknumber=3
Year=2019
Genre=Metal
Discnumber=1



[ Hidden Text ]
AHBAnep

Сильно Psychedelic. Что-то в этом есть.
Foneg
ЦИТАТА(AHBAnep @ Jul 12 2019, 10:36:25) *

Сильно Psychedelic. Что-то в этом есть.


Я включил и не смог остановиться - на одном дыхании пролетела запись, хотя реально на 90% из диссонансов состоит.
Nomore
Отличный релиз. Жду полноформатник.
mittal
По первому прогону не понял, по второму вызвало отторжение.
This is a "lo-fi" version of our main content. To view the full version with more information, formatting and images, please click here.
Invision Power Board © 2001-2020 Invision Power Services, Inc.