Help - Search - Members - Calendar
Full Version: Autophagy - Demo [demo] (2018)
Metal Area - Extreme Music Portal > Releases Area / Релизы > Archive
Ambercandle


*Artist: Autophagy
*Album: Demo [demo]
*Year: 2018
*Genre: Death Metal
*Country: United States
*Format: mp3@CBR320kbps
*Size: 34MB

Tracklist:
1. Intro / Lure of the Labyrinth 04:56
2. Charnel Hall 03:57
3. Beneath the Moss, Between the Roots 03:17
4. Supposed to Rot (Nihilist cover) 01:58
******************************
Total playing time: 14:08



Technical info

Input File: Autophagy - demo - 02 Charnel Hall.mp3
Channels : 2
Sample Rate : 44100
Precision : 16-bit
Duration : 00:03:57.07 = 10454963 samples = 17780.5 CDDA sectors
File Size : 9.65M
Bit Rate : 326k
Sample Encoding: MPEG audio (layer I, II or III)
Comments :
Title=Charnel Hall
Artist=Autophagy
Album=demo
Tracknumber=2
Year=2018



[ Hidden Text ]
russ777
Аутофагия сохраняет здоровье и продлевает жизнь ! genius.gif
Сабж "зашёл" ,хорошая демка,если так и далее пойдут, то будет гуд !! metaler.gif качевсвенный олдскул !
Релизёру 9.gif 9.gif
This is a "lo-fi" version of our main content. To view the full version with more information, formatting and images, please click here.
Invision Power Board © 2001-2019 Invision Power Services, Inc.