Help - Search - Members - Calendar
Full Version: Dark Colony - Dark Colony (2019)
Metal Area - Extreme Music Portal > Releases Area / Релизы > Archive
Samaritianin


*Artist: Dark Colony
*Album: Dark Colony
*Year: 2019
*Genre: Death Metal
*Country: Switzerland
*Format: mp3@CBR320kbps
*Size: 99MB

Tracklist:
01. Arrival (Intro)
02. Dimension Gate
03. Condemned By The Holy Court
04. Gemini
05. The Vector
06. Infected By The Evil
07. Creation Of Carnage
08. Intergalactic Chaos
09. Voices Of Death
10. Planet Conqueror
11. Dark Colony
12. Endless Suffering
******************************
Total playing time: 42:50



Extended info
Manfred Schwaller - Drums
Silvio Riedo - Guitar
Phil Veluz - Vocals
Mathias Burri - Bass
Julius Menth - Guitar



Technical info

Input File: 6 - Infected By The Evil.mp3
Channels : 2
Sample Rate : 44100
Precision : 16-bit
Duration : 00:04:23.33 = 11612765 samples = 19749.6 CDDA sectors
File Size : 10.6M
Bit Rate : 322k
Sample Encoding: MPEG audio (layer I, II or III)
Comments :
Title=Infected By The Evil
Artist=Dark Colony
Album=Dark Colony
Tracknumber=6
Year=2019
Genre=Metal
Discnumber=1



[ Hidden Text ]
Samaritianin
Cloud Mail 320
[ Hidden Text ]
This is a "lo-fi" version of our main content. To view the full version with more information, formatting and images, please click here.
Invision Power Board © 2001-2019 Invision Power Services, Inc.