Help - Search - Members - Calendar
Full Version: Arrowhead - Coven Of The Snake (2019)
Metal Area - Extreme Music Portal > Releases Area / Релизы > New Releases
vosmidesijatye


*Artist: Arrowhead
*Album: Coven Of The Snake
*Year: 2019
*Genre: Stoner/Doom Metal/Psychedelic Rock
*Country: Australia
*Format: mp3@CBR320kbps
*Size: 99MB

Tracklist:
1. Coven Of The Snake
2. All Seeing Eye
3. Ceremony Of The Skull
4. Ghost Ship
5. Root Of Evil
6. Dopanaught
7. March Of The Reptiles
8. Golden Thunderhawk
******************************
Total playing time: 39:46



Technical info

Input File: 01. Coven Of The Snake.mp3
Channels : 2
Sample Rate : 44100
Precision : 16-bit
Duration : 00:00:00.28 = 12304 samples = 20.9252 CDDA sectors
File Size : 12.3M
Bit Rate : 352M
Sample Encoding: MPEG audio (layer I, II or III)
Comments :
Title=Coven Of The Snake
Artist=Arrowhead
Album=Coven Of The Snake
Tracknumber=1/8
Year=2019
Genre=Rock
Discnumber=1/1



[ Hidden Text ]
vosmidesijatye
Жирнющщий стафф.
This is a "lo-fi" version of our main content. To view the full version with more information, formatting and images, please click here.
Invision Power Board © 2001-2019 Invision Power Services, Inc.