*Artist: Mortier
*Album: Trauma [ep]
*Year: 2019
*Genre: Sludge/Doom Metal
*Country: France
*Format: mp3@CBR320kbps
*Size: 60MB

Tracklist:
1. Trauma 08:42
2. ...Of Lead And Steel 08:32
3. Downfall 07:30
******************************
Total playing time: 24:44



Technical info

Input File: Mortier - Trauma - 03 Downfall.mp3
Channels : 2
Sample Rate : 44100
Precision : 16-bit
Duration : 00:07:30.58 = 19870754 samples = 33793.8 CDDA sectors
File Size : 18.2M
Bit Rate : 323k
Sample Encoding: MPEG audio (layer I, II or III)
Comments :
Title=Downfall
Artist=Mortier
Album=Trauma
Tracknumber=3
Year=2019



[ Hidden Text ]