Help - Search - Members - Calendar
Full Version: Vintlechkeit - Vi Drømmer Om Stjernene Hvor Gudene Sovnet .​.​. [demo] (2019)
Metal Area - Extreme Music Portal > Releases Area / Релизы > Archive
HowlingSpirit


*Artist: Vintlechkeit
*Album: Vi Drømmer Om Stjernene Hvor Gudene Sovnet .​.​. [demo]
*Year: 2019
*Genre: Atmospheric Raw Ambient Black Metal
*Country: Norway
*Format: mp3@CBR320kbps
*Size: 70MB

Tracklist:
1. Storm Kommer...
2. Nær stjernene...
3. Drømmer...
******************************
Total playing time: 30:46



Technical info

Input File: 01 Storm kommer.mp3
Channels : 2
Sample Rate : 44100
Precision : 16-bit
Duration : 00:11:45.50 = 31112726 samples = 52912.8 CDDA sectors
File Size : 28.2M
Bit Rate : 320k
Sample Encoding: MPEG audio (layer I, II or III)
Comments :
Title=Storm Kommer...
Artist=Vintlechkeit
Album=Vi drømmer om stjernene hvor gudene sovnet ... (demo)
Tracknumber=1
Year=2019
Genre=Atmospheric Raw Black Metal



[ Hidden Text ]
Wizard_in_Black
От релиза к релизу становятся все более raw & raw
This is a "lo-fi" version of our main content. To view the full version with more information, formatting and images, please click here.
Invision Power Board © 2001-2019 Invision Power Services, Inc.